<?xml version="1.0" standalone="no"?>
<!DOCTYPE svg PUBLIC "-//W3C//DTD SVG 1.1//EN" "http://www.w3.org/Graphics/SVG/1.1/DTD/svg11.dtd" >
<svg>
<metadata>
Created by FontForge 20090622 at Fri May 25 08:10:44 2018
 By deploy user
Freeware - Use however you wish!
</metadata>
<defs>
<font id="BDCartoonShout" horiz-adv-x="1139" >
  <font-face 
    font-family="BD Cartoon Shout"
    font-weight="400"
    font-stretch="normal"
    units-per-em="2048"
    panose-1="2 0 0 0 0 0 0 0 0 0"
    ascent="1638"
    descent="-410"
    x-height="1808"
    cap-height="1851"
    bbox="-7 -348 2080 1928"
    underline-thickness="150"
    underline-position="-142"
    unicode-range="U+0020-U+F005"
  />
<missing-glyph horiz-adv-x="1536" 
d="M256 0v1280h1024v-1280h-1024zM288 32h960v1216h-960v-1216z" />
    <glyph glyph-name=".notdef" horiz-adv-x="1536" 
d="M256 0v1280h1024v-1280h-1024zM288 32h960v1216h-960v-1216z" />
    <glyph glyph-name=".null" horiz-adv-x="0" 
 />
    <glyph glyph-name="nonmarkingreturn" horiz-adv-x="569" 
 />
    <glyph glyph-name="space" unicode=" " horiz-adv-x="1107" 
 />
    <glyph glyph-name="space" unicode="&#xa0;" horiz-adv-x="1107" 
 />
    <glyph glyph-name="exclam" unicode="!" horiz-adv-x="792" 
d="M272 1928h464l12 -12v-16q-17 -38 -48 -160q-36 -99 -36 -136q-12 0 -24 -84q-10 -15 -40 -160q-12 -25 -16 -80q-20 -41 -20 -100q-12 -12 -24 -128q-10 0 -16 -112q-15 -25 -36 -248q0 -52 -52 -52q-50 0 -96 -20q-28 0 -72 -20q-21 0 -96 -40l-16 8l4 168v172l8 92
l-4 12q16 104 16 200v48l28 300q11 22 16 152q20 55 20 140q19 76 28 76zM412 464q136 -17 136 -28q76 -27 100 -72q20 -40 20 -56v-12q-19 -100 -40 -100q0 -21 -116 -116q-23 0 -40 -20q-12 0 -44 -20l-60 -20l-84 -20h-36q-31 0 -124 20q-27 20 -48 20q-76 72 -76 120v60
q47 130 152 180q0 8 24 8q12 21 104 40z" />
    <glyph glyph-name="quotedbl" unicode="&#x22;" horiz-adv-x="796" 
d="M273 1845l12 -16v-8q-16 -139 -20 -264q4 -114 16 -192q-37 -32 -200 -32q0 -8 -36 -8q-30 0 -40 484q24 36 268 36zM697 1845l8 -12l-8 -292l8 -176q0 -22 -240 -40q-32 75 -32 488q28 32 264 32z" />
    <glyph glyph-name="numbersign" unicode="#" horiz-adv-x="1417" 
d="M908 1320h64q46 0 52 -20v-232l8 -8q106 16 252 20l16 -20v-12l8 -76v-84q0 -36 -40 -36l-224 -12v4q-16 -4 -16 -20l4 -272h-4l8 -12q48 12 260 24l24 4q11 0 28 -192q0 -36 -32 -36l-88 -12l-4 4l-60 -4h-108l-20 -4v-172q0 -120 -24 -120q-105 0 -172 -20
q-11 0 -20 20l4 196v72q0 8 -12 8q-114 0 -240 -20l-28 4q-24 -4 -24 -12v-140q0 -116 -24 -116q-56 -16 -176 -20l-4 -4h-4l-12 32q8 50 12 236l4 12l-4 4h-4l-180 -12h-32l-16 -4q-28 0 -40 128l-8 72l20 16h40l196 8l16 8l-4 48v200q0 52 -12 52l-24 -8l-212 -4h-16
l-16 16v44l-20 120v20l12 12h72l192 8l8 16l-4 28v84l-8 152q21 20 36 20h8l160 4q28 -25 28 -36h4l-4 -28q3 -228 8 -228l4 -4h4q0 14 268 24q12 10 12 24v4q0 112 -12 236l12 12zM520 808h-8v-8h-4l4 -24l4 -252l-4 -20l300 20l8 24v40l-8 232l-20 8q-162 -20 -272 -20z
" />
    <glyph glyph-name="dollar" unicode="$" horiz-adv-x="1372" 
d="M581 1848h168l16 -12l-4 -40v-84l12 -12h80q218 -11 244 -28l84 -24q84 -26 84 -48v-4l-20 -44l-20 -64l-60 -176l-48 -136h-4q-24 0 -64 24l-64 20q-52 20 -192 28l-44 8l-4 -20v-296l12 -12h32l88 -20q88 -20 176 -60q74 -25 168 -116q52 -71 52 -84q11 0 16 -52
q13 0 16 -64v-104q-16 -107 -80 -204q0 -14 -84 -96q-49 -52 -104 -80q-70 -50 -148 -76q0 -8 -52 -20q0 -9 -60 -20q-3 -8 -52 -16v-100l-16 -16h-148q-21 0 -24 12v64l-8 8h-24q-173 16 -256 36q-17 0 -68 20q-124 36 -156 72v4l20 140q10 0 16 116q12 12 24 128h8
q15 0 112 -72l44 -20q33 -20 64 -20q0 -18 164 -32q64 0 64 20l-4 12l4 148v176q-23 22 -104 36q0 7 -52 20l-48 20q-2 12 -32 12q0 13 -40 24l-80 64q-60 52 -80 92q-46 63 -68 176v120q0 31 20 88q27 98 136 208q57 58 184 128q114 48 128 48q23 0 52 28l-4 40v96
q0 36 28 36zM385 1128q0 -49 76 -100q11 0 40 -20q18 0 32 -12h12l4 212l4 28q-39 -16 -76 -20q-4 -8 -48 -24q-44 -34 -44 -64zM737 564l-8 -272h4q67 16 108 36q12 0 32 20q31 0 64 64v60q-39 58 -104 76q0 11 -56 16l-16 12h-16q-8 0 -8 -12z" />
    <glyph glyph-name="percent" unicode="%" horiz-adv-x="1552" 
d="M521 1843q126 -33 140 -60q61 -19 112 -140l8 -72q0 -181 -136 -316q-101 -93 -180 -104q0 -13 -144 -28h-8q-120 0 -188 52q-71 46 -104 124l-16 60v108q20 88 60 152q15 42 128 140q84 64 200 84h128zM1121 1843l36 -32q0 -8 24 -8q26 -30 152 -88v-8q0 -10 -48 -88
l-136 -240q-8 0 -20 -36q-13 -5 -24 -40l-160 -268q-207 -343 -472 -728q-156 -212 -276 -348q-37 9 -192 168v4q71 64 180 224q113 161 336 512l144 236l436 732zM289 1451q0 -60 48 -84l16 -4h36q48 0 92 76l16 64v16q0 56 -56 76h-52q-76 -30 -76 -68q-20 0 -24 -76z
M1149 851q175 0 264 -160q16 -16 40 -108v-152q-20 -116 -60 -208q-85 -174 -240 -240q-91 -28 -116 -28h-28q-119 0 -208 108q-35 48 -56 116q0 20 -20 72v8h4l-4 48v32q21 139 32 152q31 123 148 256q126 100 204 100zM985 371q7 -92 32 -92q0 -16 32 -16h28q35 0 88 76
l20 92v8q0 77 -72 88h-28q-49 -22 -76 -68q-16 -22 -24 -88z" />
    <glyph glyph-name="ampersand" unicode="&#x26;" horiz-adv-x="1802" 
d="M616 1836h108l112 -20q187 -55 288 -188q68 -87 68 -144q5 0 16 -56q0 -38 -24 -160q-9 0 -24 -56q-9 0 -40 -60q-111 -115 -152 -136q-36 -32 -56 -32q0 -8 -24 -16v-12l192 -160q61 -48 76 -48q76 96 88 140q27 39 44 112q9 0 16 52l4 4h12q52 -40 76 -44q0 -9 112 -56
l104 -40l8 -16l-40 -108q-10 0 -16 -36q-11 -8 -24 -44l-96 -160q0 -11 68 -44q70 -44 172 -88q39 -13 60 -36v-4q-41 -81 -112 -188q-68 -100 -124 -160l-16 -4l-124 64l-196 128l-156 -112l-84 -40l-44 -20l-64 -20l-100 -20l-156 -8q-165 7 -220 28q-118 36 -152 76
q-79 31 -156 180q-20 52 -40 164v32q0 86 20 140q7 46 56 120q26 49 84 104q98 103 184 156v4l-44 84q-82 169 -88 256q-5 0 -8 36h-4l4 20v36q19 128 36 128q0 38 100 148q85 71 160 96q5 7 116 28zM628 1488h-12q-60 -39 -60 -80q0 -106 56 -156q24 -31 44 -40
q78 0 168 116l12 36v36q-16 15 -16 40q-56 56 -136 56zM408 572v-80q0 -34 48 -76q64 -36 116 -40h4q155 19 180 40q20 0 80 40v12q-34 0 -284 260h-12q-99 -81 -124 -136q-7 0 -8 -20z" />
    <glyph glyph-name="quotesingle" unicode="'" horiz-adv-x="562" 
d="M517 1840l4 -4v-4q0 -35 -152 -256q-55 -77 -96 -120l-56 -56h-20l-188 28l-4 4v24q63 71 160 288q13 20 24 68q17 16 40 16h184q61 0 104 12z" />
    <glyph glyph-name="parenleft" unicode="(" horiz-adv-x="649" 
d="M265 1853q86 -20 156 -20h16l12 -12v-20q-60 -352 -72 -464q-28 -178 -48 -580q0 -194 16 -316l-4 -16q7 -36 12 -200q20 -70 20 -176q12 -17 24 -144q6 0 12 -44q0 -32 -192 -32l-20 -4q-33 0 -44 64l-4 4q-28 62 -28 92q-12 6 -32 88q-8 0 -12 60q-15 0 -20 84
q-8 0 -12 40q-28 149 -28 236q-12 64 -12 128v76l4 24l-4 16q19 356 32 356q0 60 24 164q60 279 80 300q0 23 20 68l20 60l52 148q13 20 32 20z" />
    <glyph glyph-name="parenright" unicode=")" horiz-adv-x="598" 
d="M246 1848h84q44 0 52 -60q12 0 12 -40q15 0 24 -68q12 0 20 -60q12 0 24 -84q11 0 16 -76q12 0 24 -112q12 0 32 -336l-8 -140l4 -24l-24 -264q-7 0 -20 -116l-20 -100q-52 -217 -140 -464q-5 0 -24 -56q-15 -28 -28 -28q-33 19 -88 20h-88l-12 12v36l28 168q10 0 16 116
q15 19 20 140q15 15 20 164q15 0 36 496q-20 477 -40 568q0 71 -20 160l-20 116q0 24 120 32z" />
    <glyph glyph-name="asterisk" unicode="*" horiz-adv-x="797" 
d="M370 1203l4 -4h4l44 4h24l12 -12v-36l-4 -48l12 -4q62 84 76 84h8q58 -44 132 -132v-8l-108 -116q0 -8 12 -8q21 -16 32 -16l24 -8q18 -20 48 -20l4 -4q7 -12 28 -12l8 -12v-4q-9 -12 -20 -56l-24 -52q-27 -59 -60 -80h-4q-12 14 -52 24l-12 12h-20v-8h-4l24 -96
q0 -36 -68 -36q-63 -20 -92 -20h-52l-16 16v16q-15 104 -24 104h-8q-61 -76 -88 -76h-8q-68 92 -124 152v4l116 104v16q-16 0 -92 44q-50 27 -52 36v20q32 32 68 92q9 0 16 36l28 20h4q41 -37 84 -56l4 4l-4 48v56q0 22 16 28h20l12 -4z" />
    <glyph glyph-name="plus" unicode="+" horiz-adv-x="1196" 
d="M770 1348l12 -12l-40 -276q-4 -43 -20 -84l4 -12q74 0 216 24q29 0 108 20h36l16 -16v-40l16 -180q-20 -27 -168 -40q0 -11 -136 -16q-42 -16 -100 -16h-20q-36 0 -36 -96q-10 0 -24 -92l-52 -204q-39 -28 -196 -44h-80l-8 8v24q16 36 20 116q12 0 24 112q9 12 20 112
q8 0 8 20v8l-4 4v4l-44 -8l-4 4h-4q-39 -8 -116 -8h-168l-16 12l4 24l-4 148l-12 52q3 24 24 24l192 4l16 4l4 -4l68 4h100q12 0 12 16l-4 4v4q20 61 40 244q0 116 36 116q192 16 260 36h20z" />
    <glyph glyph-name="comma" unicode="," horiz-adv-x="757" 
d="M654 336q12 -4 12 -24l-68 -156q-9 0 -16 -40q-11 -7 -64 -120q-7 0 -64 -104q-73 -113 -140 -200q-21 -36 -44 -36v-4l-184 28q-21 11 -44 12h-24l-12 12v4l84 156q8 0 8 24q11 8 48 96q10 0 16 48q13 6 28 60q8 0 12 48q11 0 24 64q11 0 16 56q22 48 28 48l4 4l20 -4
q348 12 348 28h12z" />
    <glyph glyph-name="hyphen" unicode="-" horiz-adv-x="1057" 
d="M943 1122q28 -61 28 -284l-12 -8h-12l-232 -40q-73 0 -184 -20h-32l-308 -20h-172l-16 12l4 20l-4 188l-8 60q15 12 36 12q152 0 252 12l4 -4h4q24 7 216 12q0 9 196 24q0 9 112 16q15 15 128 20z" />
    <glyph glyph-name="hyphen" unicode="&#xad;" horiz-adv-x="1057" 
d="M943 1122q28 -61 28 -284l-12 -8h-12l-232 -40q-73 0 -184 -20h-32l-308 -20h-172l-16 12l4 20l-4 188l-8 60q15 12 36 12q152 0 252 12l4 -4h4q24 7 216 12q0 9 196 24q0 9 112 16q15 15 128 20z" />
    <glyph glyph-name="period" unicode="." horiz-adv-x="662" 
d="M298 513h120q87 -16 152 -80q40 -61 40 -92q8 0 16 -48q-9 -82 -88 -184q-104 -83 -168 -92q0 -9 -36 -12h-104q-61 0 -148 48q-63 57 -76 132l-4 40v8q16 81 52 124q64 76 132 112q41 23 84 32q1 8 28 12z" />
    <glyph glyph-name="slash" unicode="/" horiz-adv-x="1404" 
d="M1048 1851l156 -80q64 -21 64 -36v-16q-30 -45 -40 -88l-64 -132q-246 -532 -612 -1080l-168 -244l-140 -199q-41 -68 -60 -68q-113 89 -180 127q0 30 100 160l80 116q57 93 84 124l120 188q187 303 268 456q74 122 200 380q8 0 8 24q13 12 116 232l36 84q21 52 32 52z
" />
    <glyph glyph-name="zero" unicode="0" horiz-adv-x="1367" 
d="M692 1736q129 -19 176 -40q32 0 168 -96q99 -95 132 -156q63 -97 100 -232q28 -105 28 -192q6 0 8 -100q-12 -250 -32 -280q0 -41 -20 -88q-48 -157 -76 -184q-27 -85 -168 -220q-9 0 -24 -20q-9 0 -24 -20l-68 -40q-134 -60 -208 -60l-92 -8q-131 8 -144 24
q-83 12 -224 144q-116 138 -148 240q-8 0 -8 12q-48 140 -48 180q-20 41 -20 208q0 159 24 244q0 28 20 84l20 68l24 64q38 86 76 148q34 63 132 160q48 50 132 96q101 48 148 48q0 13 116 16zM412 856v-52q0 -96 48 -224q40 -83 100 -112q0 -11 52 -16q0 -12 64 -16
q60 6 124 64q58 80 68 136q44 75 44 292q0 254 -120 336q-44 24 -84 24l-44 4q-132 0 -212 -216l-20 -64q-20 -104 -20 -156z" />
    <glyph glyph-name="one" unicode="1" horiz-adv-x="837" 
d="M724 1744h12l12 -12v-8q-40 -247 -48 -412q-10 0 -16 -184l4 -4v-4q-20 -127 -20 -228v-340l20 -372l16 -124v-4l-12 -12q-428 -19 -428 -36l-40 -4h-12l-12 12v16q0 184 28 716l-4 12q16 97 20 332l4 16l-4 4v4l12 88h-8q-46 -60 -112 -80q-63 -20 -84 -20h-40l-12 12
v28l8 96l-8 84q0 32 52 32q0 10 44 24q80 44 120 100q42 46 84 184l12 8h92q178 20 280 60q23 0 40 16z" />
    <glyph glyph-name="two" unicode="2" horiz-adv-x="1312" 
d="M584 1708h108q129 -8 288 -84q104 -72 160 -156q10 -7 28 -48q6 0 16 -40q8 0 20 -64q12 0 12 -44v-128q-22 -136 -40 -152q0 -46 -128 -228l-84 -84q-136 -120 -292 -200q-11 0 -40 -20q-14 0 -44 -20l-52 -20l-72 -28v-4l12 -4l504 36q0 7 136 12q0 8 64 16l20 -8
l-24 -328v-100l-12 -12l-528 12l-544 -12h-16q-13 0 -20 136q-7 0 -12 128q-11 12 -24 108q-12 0 -12 44q0 30 52 40q6 9 68 32l172 88q0 11 32 16q1 7 76 48l108 68q208 154 252 264q24 34 24 104q0 86 -40 116q-42 52 -136 52l-16 4q-165 0 -268 -48q-60 -17 -208 -116h-4
l-12 12v40l-20 96q0 27 -36 100q-8 27 -52 96v12q66 74 148 120q35 28 56 28q14 24 44 24q0 11 52 24q0 8 56 20q72 32 228 52z" />
    <glyph glyph-name="three" unicode="3" horiz-adv-x="1362" 
d="M1132 1704h8l12 -12v-32q24 -96 24 -304v-52l4 -24q0 -18 -48 -52q-51 -47 -100 -76l-132 -84l-32 -16q0 -7 -36 -20q-124 -72 -152 -72v-12h20q68 20 156 20v-4l4 4h4q134 -20 160 -40q36 0 148 -92q84 -115 84 -236l-4 -60v-40q0 -22 -20 -80q-26 -118 -148 -244
q-121 -107 -192 -124q-3 -8 -56 -20q0 -12 -72 -16q0 -12 -80 -16h-184q-226 39 -284 80q-16 0 -44 20q-75 35 -120 76q-52 27 -52 44q0 15 64 84l88 104l84 120h8q20 0 52 -36q65 -42 136 -72q14 -12 160 -32q136 21 136 40q24 0 76 76q1 23 12 36l-4 4l4 28q0 79 -160 108
h-132l-148 -24q-28 0 -28 124q-4 66 -32 160q-9 6 -28 76q0 12 40 12q35 24 68 24q0 13 60 20q2 9 72 36q12 0 28 16q23 3 44 24q20 0 136 88v4h-8v4l-168 -20l-12 4q-58 -8 -156 -8h-252l-16 16v156q0 52 -20 164v40q3 24 12 24h52l192 4l16 -4q54 8 196 8h28
q250 20 464 60z" />
    <glyph glyph-name="four" unicode="4" horiz-adv-x="1332" 
d="M1056 1708l16 -12l-24 -168l-20 -128q0 -50 -20 -192l-8 -104l4 -4q-16 -83 -16 -176v-144l-4 -108l12 -4q157 20 224 20h12l16 -16l-4 -12l4 -204v-36l4 -28l-16 -12h-20l-192 -20h-24l-8 -8l20 -256q11 -2 16 -88l-12 -8h-28l-328 4l-128 -4l-12 12l4 60v16l-4 20
q20 176 20 232v8l-8 8h-500q-16 7 -16 28v72l-16 224q58 48 196 240q8 0 8 20q12 0 48 64q180 270 308 596q17 48 44 48h104q182 20 268 40q22 0 80 20zM340 676l8 -8h224l8 8v12l20 220q0 36 20 144q0 36 24 140l-4 16h-4q-7 0 -20 -56q-32 -58 -32 -80q-10 0 -24 -48
q-12 0 -12 -28l-4 -4q-16 -14 -16 -36q-7 0 -100 -164z" />
    <glyph glyph-name="five" unicode="5" horiz-adv-x="1352" 
d="M1184 1708q24 0 24 -16q-28 -83 -36 -136q-13 0 -32 -188v-56l-12 -12h-16l-236 -20h-196l-32 -8l4 -20q-12 -177 -28 -200v-12q119 24 152 24h64q168 -19 168 -36q68 -6 172 -108q49 -57 80 -144q24 -75 24 -180q0 -193 -80 -312q-100 -132 -176 -164l-60 -36
q-110 -44 -164 -52q0 -13 -92 -16q0 -12 -108 -16h-168q-43 0 -184 48q-2 12 -32 12q-53 38 -76 44q-101 74 -144 128v4q92 140 104 176q8 0 8 24q24 21 24 52q12 0 20 52l4 4h8q104 -100 124 -100q25 -34 184 -72l56 -4q70 0 188 52q72 40 80 84q12 0 12 20v76
q-7 44 -64 100l-88 40l-96 4q-151 0 -212 -24q-27 0 -84 -20l-28 -4l-8 12v12q40 125 52 188q8 0 8 60q19 36 28 140q9 0 20 148q10 0 16 184l-4 4v4q8 34 8 88v56l4 4l-4 4v4q0 23 32 40h8v-4l32 4q312 0 432 20q47 0 212 24z" />
    <glyph glyph-name="six" unicode="6" horiz-adv-x="1282" 
d="M652 1708h136l128 -20q21 0 64 -20q75 -20 116 -52q0 -11 -76 -132q-32 -38 -72 -168q0 -39 -24 -52h-8q-31 32 -140 56h-108q-117 -24 -220 -168l-36 -68q-8 -27 -24 -48v-8l8 -8q73 79 160 108l96 20h120l100 -20q172 -71 264 -220q32 -45 68 -168l12 -140
q-10 -188 -28 -188q0 -56 -80 -180q-109 -123 -160 -140q-4 -11 -100 -52l-48 -16q-104 -24 -136 -24h-136q-147 29 -236 96q-25 0 -148 136q-84 134 -84 160q-20 43 -32 108q-20 86 -28 232q19 292 40 324q0 42 20 84q0 21 40 120q0 19 60 124q33 73 144 176q57 61 148 100
q0 6 44 16q0 10 80 20q0 12 76 12zM464 548q0 -114 100 -144q17 -16 64 -16h56q48 0 120 88q36 80 36 128v24q0 59 -52 112q-63 40 -104 40h-76q-65 -17 -112 -84q-32 -55 -32 -148z" />
    <glyph glyph-name="seven" unicode="7" horiz-adv-x="1322" 
d="M84 1708l52 -4l12 4q209 -20 428 -20h660l12 -12v-12l-20 -108q-20 -162 -20 -228v-52q-177 -174 -208 -244q-33 -37 -92 -156q-60 -114 -84 -208q-36 -83 -36 -140q-17 -13 -28 -116q-9 -20 -20 -160q-12 -53 -12 -124v-36q0 -21 -16 -28h-4l-28 4q-175 -8 -244 -28
q-35 0 -144 -40q-20 0 -20 16q8 238 28 320q0 32 20 96q20 103 72 228l16 48l60 120q89 165 256 364l100 108v8h-40l-112 -4l-16 4l-396 -28l-172 -20h-76l-12 12v16q20 70 28 132q10 0 32 248v28q4 12 24 12z" />
    <glyph glyph-name="eight" unicode="8" horiz-adv-x="1297" 
d="M656 1756q126 -8 164 -28q15 0 56 -20q17 0 116 -60q85 -73 104 -120q32 -39 44 -160q-12 -102 -40 -160q-43 -79 -144 -168l-68 -64q99 -53 220 -160q73 -81 96 -180q16 -95 16 -152q-12 -89 -32 -144l-20 -36q-29 -65 -88 -120q-52 -56 -100 -84q-70 -44 -96 -44
q0 -15 -104 -36l-88 -20h-196q-30 0 -124 20l-64 20q-84 21 -188 112q-54 54 -96 160l-24 136q4 71 28 160l36 76q7 0 28 40q148 169 224 208l8 8v12q-106 95 -132 128q-59 58 -92 176v136q35 149 144 244q95 68 152 80q0 11 124 32zM480 1304q0 -62 84 -116q61 -44 72 -44
q94 40 128 116q16 27 16 44v48q-22 68 -64 68q-19 20 -48 20h-56q-108 -27 -108 -60q-18 0 -24 -76zM408 536v-16l24 -64q62 -60 120 -68h40l16 -4q109 0 168 80q24 40 24 52v48q0 75 -216 216q-176 -119 -176 -244z" />
    <glyph glyph-name="nine" unicode="9" horiz-adv-x="1247" 
d="M548 1708h76q34 0 128 -20l56 -20q77 -16 176 -104q63 -57 80 -100q20 -13 64 -128q52 -143 52 -336l-4 -68v-92q-19 -194 -40 -256q-35 -143 -80 -232q-51 -106 -164 -220q-97 -73 -128 -80q-49 -32 -164 -52h-188q-125 19 -192 44q-15 15 -44 20q-5 13 -40 24
q-91 76 -136 140v8q0 21 84 92q93 97 108 152l4 4h12l68 -76q48 -44 68 -44q0 -17 128 -36l112 20q46 24 88 68q75 85 96 216q20 97 20 128v12l-8 8q-14 -63 -108 -152q-91 -76 -184 -76l-4 -4h-4q-105 12 -148 32q-149 61 -228 204q-80 136 -80 336q0 116 24 168
q0 54 108 216q93 96 128 112q61 51 212 88zM420 1160v-36q22 -168 56 -168q0 -22 84 -40q144 0 188 200v92q-10 60 -72 108l-84 24q-57 -9 -96 -32q-34 -23 -48 -60q-9 0 -28 -88z" />
    <glyph glyph-name="colon" unicode=":" horiz-adv-x="757" 
d="M431 1465q121 0 208 -92q44 -70 44 -128l4 -4q-12 -76 -52 -140q-75 -90 -124 -104q-34 -31 -168 -48q-156 16 -156 36q-47 0 -96 84q-24 54 -24 96v16q0 85 104 184q128 100 260 100zM375 517q178 0 240 -148l20 -72q-7 -72 -72 -164q-77 -77 -156 -108l-64 -16l-84 -4
l-20 4l-12 -4l-96 28q-78 41 -92 88q-9 1 -24 72v60q12 62 60 124q131 140 300 140z" />
    <glyph glyph-name="semicolon" unicode=";" horiz-adv-x="892" 
d="M603 1351q131 0 212 -96q44 -73 44 -128q-8 -72 -32 -112q-9 -1 -24 -40l-64 -64q-108 -68 -184 -68q0 -8 -36 -8q-156 16 -156 36q-38 0 -76 52q-15 5 -40 80l-4 16v76q31 106 136 180q114 76 224 76zM655 375h4l8 -8v-12q-36 -69 -40 -96q-8 -3 -80 -160
q-8 -4 -100 -179q-7 0 -48 -72q-54 -87 -100 -136l-28 -20q-83 20 -192 24q-33 20 -72 20l-4 4v8q19 18 28 48q8 0 44 80l16 36q8 0 8 12l8 28q12 7 24 51q32 51 32 84q33 46 48 116q8 0 20 52q8 0 20 64q11 32 56 32q85 8 260 8q32 0 88 16z" />
    <glyph glyph-name="semicolon" unicode="&#x37e;" horiz-adv-x="892" 
d="M603 1351q131 0 212 -96q44 -73 44 -128q-8 -72 -32 -112q-9 -1 -24 -40l-64 -64q-108 -68 -184 -68q0 -8 -36 -8q-156 16 -156 36q-38 0 -76 52q-15 5 -40 80l-4 16v76q31 106 136 180q114 76 224 76zM655 375h4l8 -8v-12q-36 -69 -40 -96q-8 -3 -80 -160
q-8 -4 -100 -179q-7 0 -48 -72q-54 -87 -100 -136l-28 -20q-83 20 -192 24q-33 20 -72 20l-4 4v8q19 18 28 48q8 0 44 80l16 36q8 0 8 12l8 28q12 7 24 51q32 51 32 84q33 46 48 116q8 0 20 52q8 0 20 64q11 32 56 32q85 8 260 8q32 0 88 16z" />
    <glyph glyph-name="less" unicode="&#x3c;" horiz-adv-x="987" 
d="M672 1768l148 -132l4 -16v-4l-92 -136q-195 -295 -416 -572q-16 -17 -16 -32q230 -266 488 -628l60 -80q12 0 12 -8v-12q-149 -148 -176 -148q-97 181 -328 472q-113 137 -176 200l-180 180v4q83 83 172 196q234 292 404 580l84 136h12z" />
    <glyph glyph-name="equal" unicode="=" horiz-adv-x="1272" 
d="M973 1308h56q24 0 24 -152v-48q0 -28 -28 -28h-36q-179 -24 -276 -24q-47 -13 -320 -24q0 -5 -60 -8l-4 4h-4q-39 -8 -116 -8h-48l-16 16v24l-20 116v44l12 12l392 20q57 15 208 20q60 20 164 20zM1061 800q17 0 28 -140v-44l4 -16q0 -40 -112 -40q-133 -20 -288 -24
q-76 -14 -356 -24l-140 -12q-15 0 -32 144l-8 56l20 16l124 8l4 -4h4q200 9 324 28q76 0 196 20q41 0 164 20q32 0 68 12z" />
    <glyph glyph-name="greater" unicode="&#x3e;" horiz-adv-x="992" 
d="M192 1768q18 -2 96 -144q52 -76 52 -92q11 -2 48 -68l80 -120q145 -201 196 -260l96 -116q20 -36 100 -112v-4l-164 -164q-72 -68 -232 -268q-146 -186 -228 -320l-68 -100h-4q-160 134 -164 152v4q43 51 64 88l176 240q8 0 80 104q8 0 60 76l176 212q0 16 -128 180
q-125 165 -240 336l-112 164l-36 56v20z" />
    <glyph glyph-name="question" unicode="?" horiz-adv-x="1677" 
d="M549 1844l4 -4l40 4h80q129 0 276 -20q151 -20 212 -40q98 -23 224 -88q59 -33 136 -108q68 -103 76 -168v-104q-20 -44 -20 -68q-43 -88 -116 -172q-169 -155 -300 -208q0 -8 -40 -20q0 -8 -44 -20q0 -11 -52 -16q0 -12 -60 -24q0 -8 -64 -20q-3 -9 -116 -24l-4 -4h-4
l-12 4q-24 0 -24 -36q-7 -172 -32 -172h-200q-161 -20 -208 -56h-8l-12 12q7 8 12 100q12 12 24 128q11 28 20 128q9 2 16 104q5 0 12 48q6 40 28 40q133 0 188 20q44 4 196 44q42 20 72 20q7 13 76 28q0 12 40 12q16 18 48 28q0 12 24 12l52 48l16 52q-28 56 -96 56
q0 11 -172 24q0 10 -180 12h-8q-52 0 -176 -20q-26 0 -260 -60l-52 -20q-21 0 -48 -20q-13 0 -88 -44l-20 8l4 128v12l48 216q7 0 20 72q8 0 20 64q6 0 20 32l72 20q78 20 144 28q0 12 136 16zM545 380h24q76 0 160 -24q0 -6 40 -20q54 -44 68 -80v-72q-13 -88 -152 -184
l-44 -24q-128 -56 -216 -56h-20q-137 20 -160 52q-12 0 -48 48q-9 0 -12 36q-10 0 -16 44q0 76 88 168q69 60 92 60q0 15 52 20q0 15 144 32z" />
    <glyph glyph-name="at" unicode="@" horiz-adv-x="2079" 
d="M1017 1844q198 -8 260 -28q30 0 76 -20q27 0 116 -40q15 0 112 -56q198 -136 264 -300q36 -66 36 -92q13 0 24 -84q12 0 16 -100q12 0 16 -148v-64l-20 -140l-20 -56q-10 -68 -132 -208q-102 -68 -116 -68q-8 -9 -56 -24q0 -6 -100 -16q-121 0 -172 28q-44 0 -156 84
l-64 80q-130 -112 -240 -124h-48l-16 -4l-16 4h-44q-103 30 -128 72q-47 36 -72 96q-5 0 -28 80v152q25 151 136 292q119 115 192 124q14 12 48 12h40l16 4l16 -4h36q86 -20 124 -52h4q8 0 12 40l12 4l60 -12h140q24 -2 24 -12v-8q-12 -11 -16 -64q-12 -7 -24 -88
q-9 0 -20 -88q-12 0 -16 -136q0 -99 60 -152q10 -22 108 -44q122 0 168 132l16 120q-16 194 -56 284q-31 71 -80 136q-48 61 -116 104q-34 24 -68 36q-73 48 -268 72h-144q-73 -20 -124 -24q0 -9 -68 -24l-108 -56q0 -12 -56 -40q0 -7 -48 -48q-102 -106 -140 -200
q-8 0 -20 -44q-28 -44 -40 -128q-9 0 -20 -120q8 -208 24 -208q0 -43 44 -148q42 -83 84 -132q93 -93 132 -108q84 -57 212 -80q0 -10 124 -16l4 4h4l64 -8q180 9 180 28q39 0 68 20l40 4q46 -97 104 -176v-4q0 -12 -32 -12q-13 -18 -88 -40q-178 -48 -348 -48
q-209 0 -352 60q-72 24 -160 84q-14 2 -32 24q-22 0 -132 116q-90 107 -144 224q-36 75 -64 208q-10 0 -16 180q0 275 144 520q72 118 192 232q56 39 56 48q123 81 216 120l56 20q71 24 104 24q0 18 244 24zM781 860v-40q16 -92 76 -92h4q90 0 116 88q11 0 28 124
q0 81 -76 104h-8q-65 -15 -76 -36q-25 -22 -40 -60q-24 -53 -24 -88z" />
    <glyph glyph-name="A" unicode="A" horiz-adv-x="1629" 
d="M1048 1852q29 0 40 -116q9 0 20 -80q7 -5 44 -168l36 -136q9 0 16 -68q13 0 20 -72l80 -280l40 -120q10 -36 36 -36l84 -8h4l12 -12v-28q0 -73 -20 -180q0 -35 -8 -56l28 -112q40 -108 44 -140q6 0 48 -100l4 -4v-4q-69 -51 -156 -92l-44 -20l-56 -20l-64 -19
q-18 0 -72 -20q-10 0 -20 51q-9 0 -16 60q-15 0 -20 64q-8 0 -28 80q-7 0 -12 52q-8 0 -28 84q-15 81 -32 92l-208 -4h-88l-108 -4l-28 -144l-28 -132l-28 -175v-12q0 -6 -16 -12q-16 16 -80 28q0 9 -96 19q0 10 -248 32l-8 12v4q40 106 48 160q9 0 20 60q6 0 32 96v16
q-86 -11 -96 -20h-12q-12 0 -36 180q-16 49 -24 124q-11 0 -16 72q-7 0 -8 20q0 28 284 28q48 0 48 68q9 0 28 96q7 0 20 76q11 12 40 144q11 7 36 128q16 23 16 56q24 46 24 84q20 20 20 64q20 17 20 60q9 3 44 124q12 11 12 44q43 32 140 64q66 28 196 48h16zM824 1332
l-24 -96l-20 -68l-40 -152l-20 -72l-20 -84q0 -8 12 -8l220 -4v4l4 4l-44 240l-48 216q-8 18 -16 20h-4z" />
    <glyph glyph-name="B" unicode="B" horiz-adv-x="1662" 
d="M692 1845l172 -4l172 -32q0 -7 56 -12q2 -9 64 -24q0 -9 44 -16q0 -10 44 -24l64 -40q152 -130 152 -276v-4q0 -119 -52 -196q-17 -34 -104 -120l-64 -48q0 -8 36 -12q0 -10 48 -24q110 -66 156 -116q33 -29 80 -112q32 -68 40 -140q5 0 12 -48l-4 -4l4 -16
q0 -63 -24 -180q-14 -17 -40 -84q-127 -192 -348 -268q0 -8 -60 -20q0 -8 -64 -20q0 -7 -92 -19q0 -12 -120 -16l-48 -12l-4 4h-4l-80 -8h-120l-76 4l-12 -4q-73 19 -180 24q-3 14 -96 20q-1 10 -80 23q-32 21 -32 28q12 27 16 160q16 20 16 176q24 99 24 588q0 480 -20 480
h-20l-84 -20h-8l-24 8l4 68v44q-9 188 -32 188v4q0 32 208 64q0 9 156 20q42 12 80 12zM592 1540l-4 -4v-4l8 -132v-72l-4 -120h8v-4l20 4h56q128 20 168 40q24 0 128 60q48 59 48 80v32q0 37 -72 80q-35 19 -96 28q-21 11 -44 12l-148 4zM592 816l-4 -4v-72l-8 -136l4 -4
v-4q-16 -102 -16 -176l4 -20l128 4l20 4l4 -4q86 0 192 24q33 0 132 56q56 41 56 116q0 107 -92 148q-40 28 -120 40q0 15 -300 28z" />
    <glyph glyph-name="C" unicode="C" horiz-adv-x="1457" 
d="M1128 1860q60 0 60 -24l20 -116v-8h-4l4 -80v-8q-3 -221 -32 -260q-57 8 -152 8q-130 0 -180 -24q-68 -17 -144 -64q-127 -98 -160 -172q-6 0 -24 -44q-8 0 -8 -32q-19 0 -40 -144v-84q19 -111 36 -132q55 -128 176 -188q48 -29 136 -44q0 -8 48 -8h68q150 19 192 40
l84 40q65 39 84 60h8q20 0 36 -132q32 -174 40 -328q-48 -34 -104 -52q-11 -12 -56 -24q-2 -10 -56 -16q0 -11 -88 -24q-11 -10 -124 -20q0 -5 -72 -12v4l-4 -4h-68q-111 0 -200 20q-32 0 -76 20q-63 13 -164 68l-76 52q-1 9 -64 60q-128 153 -128 192q-34 39 -76 200
l-20 152q0 73 28 252q8 0 20 72q5 0 20 60q32 64 36 92q7 0 28 48q68 127 172 240q160 159 200 168q0 14 60 40q2 9 32 20q105 61 180 80q0 12 44 12q17 14 156 40z" />
    <glyph glyph-name="D" unicode="D" horiz-adv-x="1950" 
d="M932 1832l188 -4l176 -28q0 -6 80 -20q0 -5 60 -20q0 -10 56 -16q4 -11 112 -56q3 -10 64 -44q0 -14 24 -20q0 -8 40 -36q115 -137 128 -212q9 -8 32 -112l4 -112q0 -96 -24 -200q-43 -146 -128 -284q-39 -65 -64 -88q0 -25 -192 -216q-67 -62 -140 -112q-2 -10 -60 -40
q0 -11 -32 -16q0 -12 -80 -52q-32 -10 -32 -20q-15 0 -56 -24l-100 -40q-75 -24 -104 -24q0 -13 -104 -24q0 -12 -56 -12h-300q-152 7 -156 36q16 190 16 312v440l-8 504l-4 4h-4l-164 -44l-68 -20q0 -9 -20 -12l-12 12q16 88 16 132v68l-20 212q34 28 68 28q0 12 56 24
q0 9 60 20q7 9 132 36q13 12 100 24q0 13 92 16q10 16 108 16q28 12 112 20zM700 1368q8 -8 12 -68l-4 -4l4 -20v-704l-4 -120h4q131 16 176 36q24 0 64 20q12 0 88 40q126 61 240 204q60 68 104 208q0 51 8 76q0 174 -92 244q-49 60 -180 92q0 8 -204 28q-216 -11 -216 -32
z" />
    <glyph glyph-name="E" unicode="E" horiz-adv-x="1465" 
d="M1340 1852l8 -12v-12l-20 -60q-40 -148 -48 -256l-16 -12h-252l-376 -28l-4 -12q12 -124 12 -236l-4 -4v-4q4 -44 12 -44h4l104 16h48l244 12q56 -4 56 -20v-8l-20 -68q-20 -77 -40 -260v-24q0 -21 -16 -28l-48 8h-184q-137 0 -152 -20l4 -200v-124q0 -8 12 -8l196 16
l4 -4h4q0 8 512 12l8 -20l-16 -216q0 -123 16 -208l-12 -8h-32l-56 4l-4 -4h-4q-117 20 -292 20h-112q-223 0 -368 -16l-4 4h-4l-224 -16q-27 -12 -68 -12h-36l-12 12q19 87 32 280l24 464l-20 4l-84 -20q-18 8 -20 16v48q0 160 -12 220l4 4l-4 20v28l12 12h16
q100 16 100 28l-28 276l-8 8h-36l-108 -28l-8 24v132l-20 212q12 26 168 32q71 20 172 20q61 15 232 24l88 12h64q235 24 616 24z" />
    <glyph glyph-name="F" unicode="F" horiz-adv-x="1532" 
d="M1456 1860l12 -16v-4q-16 -37 -24 -200q-8 0 -12 -224l-16 -8q-494 -20 -624 -40q-58 0 -176 -20q12 -140 12 -276l-4 -24l4 -16l348 20v-4l4 4h40l40 4l12 -16v-160l24 -216q-3 -20 -20 -20v-4l-16 4l-424 -16l-12 -4v-12l-12 -388v-32l-4 -36l4 -4v-4l-24 -176l-4 -4
h-8q-51 20 -100 28q0 9 -96 20q0 12 -268 32l-8 12l28 144q10 21 20 108q10 0 16 108q16 28 16 76v84h-8v4q-14 -13 -120 -20l-36 -16l-16 12v304l-4 40q11 14 100 32q56 0 96 32l-4 16l8 184l-8 104h4l-12 16h-16l-88 -20q-25 0 -64 -16h-4l-12 12l4 28v364l-4 28
q8 13 68 16q2 13 108 20q5 14 120 20q9 15 124 20q40 15 160 24q14 9 164 20q10 11 172 16q75 15 420 36h60z" />
    <glyph glyph-name="G" unicode="G" horiz-adv-x="2045" 
d="M1368 1857l156 -4l132 -28q0 -8 60 -20q0 -10 44 -16l8 -12v-8q-28 -87 -28 -108q-11 -14 -32 -152q-17 -136 -32 -136q-88 36 -132 36q-38 16 -76 16h-200q-143 -20 -184 -40q-29 0 -140 -48l-56 -28q-56 -24 -152 -96q-146 -121 -200 -240q-52 -104 -52 -168
q-5 0 -12 -92q16 -126 56 -180q51 -88 164 -132q0 -7 128 -28l140 20l88 24q0 10 48 24q168 90 168 152h-4l-284 -48l-152 -28l-44 -12h-8l-12 12v12q20 106 28 320q0 24 84 28q32 15 116 24q9 9 100 20q0 8 104 20q0 8 108 20q25 10 108 20q0 11 100 16q48 15 148 28
q0 7 88 12q54 20 128 20l36 12h24l12 -12q-16 -51 -36 -200q-18 -172 -32 -172h-48q-100 -12 -100 -44q0 -18 -40 -108q-57 -128 -160 -248q-105 -109 -200 -168q-108 -68 -220 -104l-52 -15q0 -11 -72 -16q0 -13 -144 -24q0 -8 -28 -8h-8v4l-40 -4h-56q-232 18 -232 36
q-25 0 -72 19q-88 27 -196 112q-93 84 -132 168q-31 61 -48 116q-28 120 -28 192v20l4 108h4l-4 12l36 184q40 103 40 124q10 7 64 128q10 0 20 36q13 9 84 124l92 100q194 185 232 188q26 30 144 88q93 48 128 56q0 8 56 20q0 8 60 20q0 12 72 16q13 14 172 36z" />
    <glyph glyph-name="H" unicode="H" horiz-adv-x="1719" 
d="M596 1852l12 -16l-12 -704l4 -4h52q176 20 272 20q204 11 204 28v136l12 448v64q0 22 16 28l240 -4q123 -8 168 -28l4 -408v-92q20 -661 36 -772l-4 -4v-4l28 -428v-32l4 -24q0 -22 -96 -32q-38 0 -168 -24l-144 -27q-15 -12 -32 -12q-32 0 -32 55l4 4l-24 500v220l-8 24
l-40 -4h-168q-124 0 -236 -20l-12 4l-36 -4h-28l-8 -8v-424l4 -280l-16 -8l-44 4l-4 -4h-4q-126 20 -352 20h-36l-12 12v68q20 155 28 308l-4 4q16 97 16 196v56l-4 20q-109 -4 -140 -16h-4q-12 4 -12 24v36q0 156 -20 284q0 36 128 36q0 8 48 8v4l4 16l-16 676l-4 16
q0 44 148 44q0 17 288 20z" />
    <glyph glyph-name="I" unicode="I" horiz-adv-x="813" 
d="M615 1851l24 -12q-32 -440 -32 -736l4 -332q20 -382 40 -500q0 -86 36 -275q0 -14 -152 -20q0 -8 -140 -16q-12 -16 -88 -16q-29 -16 -96 -28q0 -7 -16 -7l-12 15v107q0 208 8 244l-4 16l4 244l-8 708l-16 204h4l-4 4q-4 237 -16 288q11 11 76 28q174 44 244 52
q15 10 132 24z" />
    <glyph glyph-name="J" unicode="J" horiz-adv-x="1416" 
d="M1180 1862h40q10 0 20 -100q8 -1 20 -128l20 -144q9 0 16 -160q7 -10 16 -100h-4l4 -4v-384l-4 -16l4 -4v-4q-20 -86 -24 -168q-36 -167 -80 -276q-56 -128 -148 -236q-100 -96 -168 -124q-68 -40 -132 -48q0 -14 -180 -28h-4q-188 13 -188 32q-83 14 -216 128
q-56 64 -100 144l-16 44q-28 44 -52 232q0 25 72 32q0 8 64 20q0 9 60 20q0 8 48 20q4 10 52 20q0 8 44 20q0 9 36 16q2 8 20 16q28 0 28 -28l-4 -20q9 -112 40 -180q8 0 12 -32q70 -80 112 -80h56q49 0 120 88q64 138 64 212q15 0 36 284v252q-20 250 -40 368q0 51 -20 144
v60q37 30 88 40q0 9 64 20q0 9 68 20q9 10 84 16q2 12 72 16z" />
    <glyph glyph-name="K" unicode="K" horiz-adv-x="1619" 
d="M400 1848h8q10 0 32 -160q16 -90 24 -300q12 -50 12 -100l-4 -20l4 -24v-68l8 -8h4q26 71 136 212q35 37 64 84l36 36l32 36q7 0 72 72q8 0 36 36l40 36q128 101 128 108q23 0 60 36q18 0 48 24h12q21 0 76 -64q122 -114 160 -128q0 -11 28 -20l28 -24v-4l-136 -80
q-69 -41 -188 -136q-72 -58 -72 -64l-156 -156q-8 0 -16 -20q-10 0 -44 -52q-7 -1 -92 -116v-20q21 -17 52 -68q92 -109 92 -120q10 0 92 -88q142 -146 232 -220l128 -100q10 0 24 -20q14 0 64 -40q20 0 20 -8v-4q0 -22 -52 -92q0 -10 -40 -52q0 -19 -64 -84
q-7 -22 -112 -128h-4l-88 60q-3 9 -48 32q0 8 -120 104q-147 143 -216 240q-60 80 -68 80q0 20 -36 64l-80 140q-28 42 -28 64h-16l-28 -328q-6 -124 -16 -124l4 -4v-4l-16 -88v-72q-10 -72 -48 -72l-140 -20q0 -8 -68 -20l-4 -4q-52 -8 -128 -40h-12l-8 8v36q16 96 24 340
q12 20 16 164l4 388l-4 376l-20 224q-4 129 -20 232v20q0 20 152 36q0 10 44 16h28q14 13 76 28q0 5 52 16q13 16 40 16z" />
    <glyph glyph-name="L" unicode="L" horiz-adv-x="1228" 
d="M576 1856h12q24 0 24 -16l-8 -636v-4l-4 -44l4 -4v-4q-20 -157 -28 -348q-9 -2 -16 -152q-16 -63 -20 -148l16 -4q65 20 324 48q40 11 256 20l16 4l4 -12l-68 -168q-5 -32 -24 -60l-20 -64l-36 -124q-11 -92 -36 -92q-600 -20 -600 -32l-260 -28l-96 -20q-16 6 -16 12v8
q16 51 24 152q9 12 20 144q12 38 44 352q48 448 60 1000v104q0 33 92 40q13 12 96 28l72 16q0 8 100 20q0 12 68 12z" />
    <glyph glyph-name="M" unicode="M" horiz-adv-x="2045" 
d="M752 1852h24q15 0 20 -164q8 -193 60 -596q7 0 12 -92q20 -38 20 -120q20 -34 20 -104q20 -32 20 -100q20 -34 20 -92q6 0 16 -44h4q8 0 8 40l88 332l20 76q9 0 16 64q13 2 20 68q13 1 20 72q15 0 20 60q9 0 24 68l100 296q10 0 16 56q16 6 16 44q20 27 52 124l16 12h44
l88 -20l212 -60l60 -28l-8 -320l-4 -24q9 -244 28 -408q0 -42 20 -164l40 -256q40 -219 80 -388l20 -80l8 -48q0 -25 -208 -59q0 -10 -120 -16q-43 -16 -76 -16h-16l-16 16v39q-20 88 -20 136q-21 76 -24 192q-14 22 -20 192q-15 80 -32 500l4 24q-4 32 -12 32l-24 -72
l-24 -96q-40 -116 -100 -344q-20 -52 -24 -104q-14 0 -20 -76q-12 0 -24 -84q-12 0 -16 -72q-12 -6 -24 -96q-11 -8 -16 -72q-52 -20 -128 -20q-20 -11 -128 -28l-72 -16q0 -7 -68 -19q0 -8 -20 -8l-16 71q-10 0 -32 112q-20 53 -28 112q-10 22 -20 88q-9 0 -20 104
q-9 0 -20 100q-11 0 -16 104q-15 33 -36 264v28l-8 8q-24 -99 -28 -156q-14 -13 -20 -124q-13 -23 -28 -164l-16 -168q-14 0 -16 -395l-4 -4h-16q-42 16 -84 20q0 12 -192 43q0 10 -132 16l-12 24q15 60 28 184q48 318 68 392q0 41 20 120l20 100l40 184l20 88q24 92 24 116
q15 0 20 80q12 0 24 80q8 0 36 124q36 97 36 124q14 0 24 76q65 31 124 40q0 10 60 16q0 16 72 20q28 15 136 36z" />
    <glyph glyph-name="N" unicode="N" horiz-adv-x="1492" 
d="M464 1862h24q10 0 24 -44q8 0 20 -48l176 -376l196 -356q43 -84 52 -84h8l20 352q11 49 20 236q11 0 16 168q0 36 68 36l188 56l56 20l44 20q20 0 36 16h12l12 -12q-10 -22 -20 -220q-11 -29 -20 -268q-12 -40 -32 -616l-8 -616l-4 -44l4 -4v-4q0 -27 -116 -40l-116 -28
q0 -9 -68 -16q0 -11 -68 -24q-4 -12 -24 -12q-24 0 -24 88l-4 188q-19 13 -96 136q-217 337 -372 636q-8 0 -16 36q-9 0 -16 36l-4 4h-4l-4 -4h-4l4 -68v-120q0 -198 20 -460v-8h-4l4 -108v-84l4 -164l4 -4v-4q0 -35 -164 -44q-39 -20 -100 -20l-176 -52q-10 0 -12 16
q17 0 24 516q12 155 12 596v232q0 291 -16 428q0 32 128 40q33 15 100 24q0 8 68 20q0 10 60 16q0 9 64 24q4 12 24 12z" />
    <glyph glyph-name="O" unicode="O" horiz-adv-x="1701" 
d="M852 1856q161 0 256 -44q17 0 32 -16q18 -2 64 -36h4l104 32l60 20q13 0 48 20l64 24q48 -77 92 -256q40 -135 48 -216q12 0 16 -128q8 0 12 -88l-4 -4l4 -20v-8l-16 -220l-24 -148q-10 -1 -24 -84q-9 0 -16 -60q-13 0 -20 -52q-10 -1 -24 -52l-36 -76
q-63 -117 -180 -252q-124 -108 -196 -140q-81 -45 -136 -55q0 -11 -84 -16q0 -7 -64 -16l-4 4l-28 -4h-48l-56 4l-12 -4q-73 24 -128 24q0 7 -72 23q0 7 -52 20q0 11 -36 16q0 8 -68 44q-107 77 -168 172q-45 64 -64 112q-5 0 -16 40q-7 1 -32 84q-24 75 -24 120
q-16 0 -24 236q8 185 28 256l40 136q77 207 216 348q77 81 156 132q110 72 216 104l72 20zM436 948v-124q19 -124 40 -164q0 -13 40 -84q69 -79 104 -96q54 -32 112 -32l48 -4q94 0 128 24q20 0 80 44q88 79 108 128q25 26 64 140q28 73 48 220v196q-20 109 -44 180h-16
q-54 -40 -96 -40q-52 60 -152 84h-132q-68 -23 -116 -52q-140 -117 -140 -160q-26 -31 -56 -132q-20 -91 -20 -128z" />
    <glyph glyph-name="P" unicode="P" horiz-adv-x="1829" 
d="M893 1862h160q57 0 220 -28l76 -20q7 -9 60 -20l112 -60q58 -42 108 -92q104 -142 104 -284l4 -40q0 -78 -32 -204q-34 -105 -124 -228q-173 -192 -216 -200q-97 -74 -204 -116q-154 -76 -432 -116h-76l-12 -12v-8l-36 -364v-28q0 -41 -92 -51q0 -16 -84 -20
q-17 -13 -136 -24q-16 -12 -76 -12h-48l-12 12v40l20 187v40l4 16l-4 4v4q24 130 24 284q14 104 24 376q11 29 16 304l4 4v4l-4 16l12 100l-12 8q-194 -44 -228 -60q-16 4 -16 16l8 376l-4 24q9 12 68 16q0 14 80 20q0 9 96 24q0 8 96 20l212 44q0 8 80 8q49 24 156 24
q52 16 104 16zM709 1404q0 -219 -20 -460v-8l8 -8h28q118 18 156 40q29 0 136 60q174 101 204 204q20 32 20 52v68q-24 85 -72 108q-32 24 -68 24q0 20 -188 20h-8l-4 4q-125 -9 -192 -36v-68z" />
    <glyph glyph-name="Q" unicode="Q" horiz-adv-x="1877" 
d="M1096 1849q138 0 220 -24q190 -52 300 -176q81 -97 92 -136q5 0 48 -120l20 -88l16 -156l-20 -196q-13 -23 -24 -88q-55 -198 -176 -396l-112 -144l-8 -20q0 -37 224 -296q0 -18 -136 -176q-99 -97 -160 -140q-11 0 -68 76q-136 173 -176 252l-16 16l-44 -20
q-17 0 -60 -20q-60 -20 -132 -32q0 -8 -48 -8h-84q-135 19 -188 40l-76 28q0 11 -36 16q0 6 -96 60q-102 82 -128 112q-106 121 -144 216q-56 118 -56 208q-10 15 -16 80l4 4l-4 20v20l4 32l-4 16l20 196q13 3 20 84q10 0 40 116q10 9 60 128l76 108q0 11 60 72
q125 131 160 140q71 60 228 124q0 8 44 12q2 13 68 20q9 13 100 24q16 12 68 12zM496 925v-128q24 -135 68 -204q51 -76 128 -128q72 -44 104 -44q13 -16 40 -16h60q29 0 36 12q0 33 -44 128l-20 56q0 28 -16 44v8q15 27 124 104l144 100h4q8 0 24 -56q38 -109 64 -136h8
q20 13 36 56q8 1 20 40q36 61 36 128q12 0 16 68v180q-24 73 -24 92q-8 0 -28 48q-110 164 -284 164q-162 0 -280 -84q-85 -62 -128 -140q-26 -41 -36 -76q-9 0 -32 -92q-20 -82 -20 -124z" />
    <glyph glyph-name="R" unicode="R" horiz-adv-x="1780" 
d="M940 1849q194 0 296 -24q31 0 92 -20q20 0 64 -20q16 0 100 -40q96 -52 148 -116q64 -85 64 -140q12 0 16 -80q0 -39 -20 -128q-47 -131 -100 -184q-94 -117 -168 -160q-52 -44 -144 -88q-58 -32 -176 -64v-12q41 -50 224 -216q19 -23 120 -100q40 -42 224 -176v-20
q-64 -79 -64 -92l-148 -172l-40 -36h-4q-201 157 -608 548l-132 144l-4 -4h-4l4 -88v-508l-16 -16h-440l-12 12l16 604q-5 342 -16 420l4 4v4l-4 164v24l-8 8h-8q-11 -16 -72 -28q0 -8 -60 -20q0 -8 -20 -8l-8 8v28l-4 16l4 4q0 99 -32 360q60 28 84 28q19 16 72 28l128 44
l56 16q0 10 80 20q13 11 176 44l164 28zM632 1428l4 -40v-76q0 -96 16 -200l-4 -16l8 -44l-4 -16l12 -12h4l84 20q27 0 84 20q16 0 132 44q121 49 180 112q48 52 48 100l4 16v28q-24 55 -60 72q-25 22 -164 40q-296 -21 -296 -40q-39 0 -48 -8z" />
    <glyph glyph-name="S" unicode="S" horiz-adv-x="1765" 
d="M1112 1851l228 -4l288 -48l60 -16l4 -4v-4l-44 -208l-20 -120l-8 -92v-16l-12 -12l-124 32q-152 40 -212 48q0 11 -116 16q-50 16 -112 16h-148q-264 -21 -264 -40q-45 0 -124 -44q-48 -38 -48 -76v-12q0 -57 72 -92q0 -8 36 -12q0 -15 120 -36q102 -24 160 -24
q22 -13 148 -24q12 -9 116 -20q14 -9 96 -20l136 -36q19 -17 52 -20q0 -13 44 -20q1 -9 40 -24q143 -82 192 -216q16 -16 24 -136q0 -102 -56 -216q-140 -186 -312 -252q-31 -23 -60 -24q-11 -12 -56 -24q-8 -10 -116 -32q-63 -20 -144 -32q-16 -7 -140 -16l-76 -12v4l-4 -4
h-56q-142 0 -300 20l-120 20q-26 0 -104 20q-36 0 -36 12q0 31 24 88q42 143 108 296q8 0 20 48l20 4h8q181 -64 368 -64h24q207 0 284 24q59 0 164 56q19 14 28 36q0 77 -272 108q-18 9 -140 20q0 11 -112 16q-8 13 -104 24q0 9 -76 20q0 7 -60 20q-8 8 -52 20q0 9 -40 16
q0 9 -44 24l-60 36q-95 75 -116 120q-38 47 -60 116q-24 96 -28 176q20 77 24 124q9 1 24 52q34 65 88 136q135 122 216 152q0 8 36 12q0 13 44 20q17 20 60 20q0 12 80 24q0 10 100 20q0 9 120 20q0 6 60 12z" />
    <glyph glyph-name="T" unicode="T" horiz-adv-x="1569" 
d="M1353 1855l4 -4l40 4h92q12 0 12 -16q-40 -157 -52 -256q-7 0 -12 -120l-32 -36h-44l-192 -28q0 -11 -100 -16q-52 -16 -52 -28l4 -4v-4q-24 -76 -24 -192q-16 -58 -36 -448q-24 -329 -24 -692q-57 -32 -140 -32q-48 -20 -124 -20q-17 -15 -148 -20q0 -7 -84 -16l-8 16
l24 192q16 68 16 124q20 102 24 224q20 55 20 172q36 331 36 464l8 108l-4 12l12 80l-4 4h-4q0 -12 -132 -20q-14 -16 -104 -16q-43 -19 -124 -28l-176 -48h-20l-8 8v8q16 46 20 132q16 43 20 164q20 55 20 176q19 36 128 36q67 20 188 24q0 12 180 20q61 15 228 24
q18 10 212 16q41 15 260 20z" />
    <glyph glyph-name="U" unicode="U" horiz-adv-x="1672" 
d="M1560 1852q25 0 52 -280v-8l4 -188q0 -243 -24 -400l-44 -240q-10 -10 -24 -84q-9 0 -20 -60q-7 0 -20 -52l-60 -128q-61 -113 -176 -236q-123 -109 -176 -128q-89 -51 -132 -51q0 -14 -100 -24q0 -12 -96 -12q-107 0 -248 28l-76 19q0 7 -48 20q0 6 -40 20
q-182 107 -252 300q-12 18 -28 80q-6 0 -16 84q-9 0 -24 176l-4 12l4 4q-8 52 -8 136q0 82 8 116l-4 16q16 80 20 180q13 10 24 116q10 0 16 80q13 5 20 76q13 2 20 68q9 0 36 108l68 176q21 66 40 72h16q42 -20 152 -48q0 -12 76 -16q0 -12 104 -24l40 -20v-4l-68 -192
q-57 -155 -108 -372q-31 -135 -40 -260l4 -4v-4l-4 -44q0 -218 68 -336q53 -87 128 -116q32 -24 148 -24q162 0 268 240q8 0 12 44q11 0 24 64q10 13 28 96l24 116l20 156q0 65 8 104l-4 4v4q16 82 16 236v100l-12 184q0 32 84 44q0 8 64 20q0 9 76 16q33 15 104 24
q0 10 80 16z" />
    <glyph glyph-name="V" unicode="V" horiz-adv-x="1687" 
d="M468 1861q26 -26 64 -176q8 0 8 -44q17 -15 44 -144q20 -26 20 -76q14 -22 24 -80q7 0 20 -76q11 0 16 -68q14 0 20 -80q11 -4 24 -88q11 0 16 -76q10 0 24 -96q9 -11 20 -88q9 0 20 -96q10 0 16 -84l4 -4h4q17 0 24 96q14 24 24 108q11 0 16 72q11 8 24 88l40 160
q9 0 16 68q10 0 24 72q6 0 20 76q8 0 20 64q11 0 16 56q10 0 24 76q11 0 16 56q12 0 20 60q9 0 24 64q7 0 20 60q7 0 20 52q7 0 16 44l4 4h4l172 -40l60 -20q16 0 176 -60q44 -21 48 -32v-12l-104 -248l-64 -160q-9 -7 -20 -60q-5 0 -24 -56l-76 -220q-9 -6 -20 -64
q-8 0 -20 -60q-8 0 -20 -60q-11 0 -16 -60q-15 0 -20 -60q-13 -1 -20 -72q-8 0 -28 -80l-68 -260l-32 -116q-33 -24 -116 -36q0 -9 -64 -16q0 -10 -80 -20q-10 -16 -64 -16q-21 -18 -96 -28q0 -9 -60 -16q0 -12 -68 -24q0 -8 -20 -8h-12q-13 0 -24 112q-11 28 -20 116
q-7 0 -20 84q-9 17 -24 104q-72 289 -124 436q0 19 -56 180l-68 188l-60 164l-80 200q-41 91 -52 132q33 25 160 80q0 8 44 12q0 13 60 24q0 12 36 12q27 24 68 24q28 20 72 20q7 16 28 16z" />
    <glyph glyph-name="W" unicode="W" horiz-adv-x="2106" 
d="M1677 1868l120 -24q0 -10 76 -16q0 -15 60 -20q0 -11 56 -20q0 -9 52 -24l12 -24q0 -23 -24 -96l-20 -76l-40 -140q-21 -87 -60 -196q0 -20 -40 -144q-56 -161 -64 -212q-10 -1 -24 -68q-32 -80 -36 -116q-9 0 -24 -64l-124 -352l-64 -172q-13 -60 -32 -60l-284 -24
q-36 -20 -112 -20q0 -11 -88 -24q-4 -12 -24 -12l-12 12v16l8 100l-4 4q12 72 12 264q-17 560 -32 560v36l-4 20h-4l-40 -116q-7 0 -12 -52q-15 -3 -20 -64q-11 0 -24 -68q-11 -2 -16 -72q-12 0 -24 -84q-9 0 -20 -84q-9 0 -20 -96q-9 0 -20 -104q-9 0 -20 -120
q-11 -18 -20 -140l-28 -12q-86 16 -216 16q-127 0 -200 -16q-32 0 -44 112q-9 0 -20 80q-8 0 -20 84q-8 0 -20 96q-9 0 -20 96q-9 0 -16 92q-12 9 -24 124q-10 14 -20 128q-9 0 -20 112q-11 0 -16 128q-10 0 -24 176q-12 72 -32 332v80l-4 136q0 28 96 40q0 8 80 20
q0 9 100 20q0 9 100 20q0 12 68 12h20q12 -4 12 -24l20 -440q20 -103 20 -272q11 -30 24 -268q10 0 16 -184l4 -4h4q20 55 24 136q20 38 20 100q11 0 24 92q10 18 20 80l56 200q12 23 24 84q11 0 16 56q16 5 16 48q13 9 28 68l64 144q55 25 188 56l76 16q0 10 116 16
q0 7 20 8h4q11 0 20 -104q9 0 20 -212q12 -47 12 -120v-48q0 -116 20 -400l-4 -28l4 -84l-4 -80l12 -8l44 152l80 268l20 64l20 72q0 21 20 68l40 152l52 188l16 72q9 0 20 76q9 0 16 68z" />
    <glyph glyph-name="X" unicode="X" horiz-adv-x="1895" 
d="M452 1860h16q9 0 28 -48q5 0 16 -36q7 0 20 -36l280 -484l80 -124q9 0 16 -28l24 -28q168 216 316 440q84 128 180 296h4q192 -12 308 -48l88 -24q24 0 24 -16q-62 -95 -76 -128q-27 -28 -68 -108l-100 -148q-7 -19 -44 -60q0 -11 -40 -64q-97 -149 -372 -508v-4
q148 -204 148 -216q21 -15 52 -68l60 -80q36 -36 68 -92q-257 -284 -312 -284h-4q-150 146 -284 328l-28 44q-18 0 -76 -68q-222 -214 -256 -228q-68 -68 -96 -68q-71 20 -128 24q-22 13 -92 24q0 9 -64 16q0 13 -52 20q0 11 -52 24l-4 4l-32 12v16q116 91 140 120
q215 183 456 460v20q-176 252 -268 404q-9 2 -20 32l-120 192l-24 40l-68 112q0 11 -20 32v4q64 83 160 156q9 18 168 140q8 0 48 36z" />
    <glyph glyph-name="Y" unicode="Y" horiz-adv-x="1479" 
d="M384 1863h12q9 0 24 -72q7 0 12 -56q12 0 24 -80q8 0 20 -64q10 0 16 -48q11 -9 40 -100l44 -108q6 0 24 -48q48 -100 108 -188h4q135 243 236 516q6 0 20 56q11 0 16 52q15 0 20 60q0 28 156 28l156 20q0 7 76 16q0 10 32 16h16q12 0 12 -16l-44 -124l-40 -104
q-209 -540 -436 -944q-104 -188 -276 -444q-120 -176 -236 -327l-24 -24h-4q-87 84 -256 191l-60 36v16q0 17 88 120l148 200q148 214 148 228q-18 13 -96 136q-61 104 -124 240l-92 208l-48 124l-20 60q-60 175 -60 192l-20 72v8q28 26 96 52l100 40q104 40 188 60z" />
    <glyph glyph-name="Z" unicode="Z" horiz-adv-x="1598" 
d="M1500 1808h40l8 -8v-12q-16 -55 -24 -136q-9 0 -16 -96q-12 -8 -24 -104q-8 0 -20 -84q-11 -2 -16 -72q-15 -2 -20 -68q-12 0 -20 -60q-12 -2 -80 -120q-15 -9 -48 -68l-176 -220q-8 0 -76 -84q-291 -285 -336 -300q0 -7 -48 -44v-8l12 -4l4 4q194 0 444 24
q229 20 340 40h16l12 -12v-8q-40 -138 -112 -276q-40 -90 -56 -92h-1292l-12 16q40 87 72 192l24 68q8 0 12 48q12 0 20 60l28 44q101 56 140 96l96 72q53 36 232 220q125 141 192 236q124 180 160 276v4h-4q-30 -12 -116 -16q-33 -14 -196 -24q0 -6 -60 -12v4l-4 -4h-24
l-320 -12l-8 24q24 67 24 88q12 13 28 96q8 0 8 60q24 45 24 116q16 60 28 60h56q546 16 680 36l164 20l136 20z" />
    <glyph glyph-name="bracketleft" unicode="[" horiz-adv-x="569" 
 />
    <glyph glyph-name="backslash" unicode="\" horiz-adv-x="1362" 
d="M231 1851q24 0 36 -52q12 0 12 -32q15 -19 84 -176l52 -108l68 -132l188 -348l100 -168l116 -192q118 -186 264 -396l40 -60q92 -129 92 -140v-4q0 -11 -32 -16l-76 -52l-72 -60q-27 0 -96 116q-20 16 -56 76l-136 192l-176 264q-201 318 -332 568l-84 160l-52 112
q-7 0 -56 112q-72 147 -100 224q16 19 108 56q0 10 32 12q5 12 76 44z" />
    <glyph glyph-name="bracketright" unicode="]" horiz-adv-x="569" 
 />
    <glyph glyph-name="asciicircum" unicode="^" horiz-adv-x="961" 
 />
    <glyph glyph-name="underscore" unicode="_" horiz-adv-x="1807" 
d="M12 208h1664l12 -12v-184q-4 -12 -24 -12h-1648l-16 16v180z" />
    <glyph glyph-name="grave" unicode="`" horiz-adv-x="682" 
 />
    <glyph glyph-name="a" unicode="a" horiz-adv-x="1668" 
d="M1093 1854h4q40 0 40 -120q13 -11 24 -112q10 0 16 -80q20 -38 20 -88q9 0 24 -88q6 0 20 -80q11 -2 16 -72q14 -27 44 -156q12 0 16 -68q20 -25 20 -68q15 -2 20 -68q9 -5 24 -72q7 -4 24 -76l92 -284q16 -19 20 -56q10 0 24 -64q6 -1 40 -88q9 0 16 -36l16 -16v-4
q-36 -36 -64 -36q0 -13 -40 -24q-1 -7 -80 -48l-84 -48q-84 -48 -84 -55l-28 -8h-16q-9 0 -16 44q-10 11 -56 131l-36 104l-8 36q-10 0 -24 68q-8 0 -20 68l-4 4h-4q-127 -8 -264 -28l-116 -20q-29 0 -108 -20q-22 0 -36 -88q-32 -109 -40 -180q-7 0 -16 -48l-4 -4h-456
l-12 12q0 15 68 192q45 137 56 148l72 216q128 360 224 660l44 132q1 20 24 80l20 68l28 104q10 0 16 60q9 0 12 36l4 28l16 12h24l172 28q0 6 112 20q14 9 92 20q0 11 72 16q0 11 40 16zM653 722l8 -8q90 20 172 28q9 9 104 20l12 20l-24 120q-20 67 -28 132q-7 0 -20 100
q-9 0 -20 104q-12 0 -12 44v32l-4 20h-4q-18 0 -28 -80q-9 -3 -24 -76q-8 0 -20 -68q-7 0 -20 -72q-9 0 -20 -68q-11 0 -16 -68q-12 0 -24 -80q-9 0 -20 -68q-12 -15 -12 -32z" />
    <glyph glyph-name="b" unicode="b" horiz-adv-x="1633" 
d="M668 1848h68q157 0 340 -48q0 -10 52 -16l80 -44q56 -40 92 -76l44 -68l8 -36q13 0 16 -52v-80l-20 -60q0 -13 -20 -48q-61 -104 -204 -200l-72 -48l4 -4h36q145 -20 228 -48q8 -8 52 -20q121 -72 140 -128q36 -27 56 -164v-24q-24 -162 -84 -248q-114 -146 -208 -196
q-93 -61 -168 -88q0 -12 -52 -16q-6 -12 -60 -28l-60 -16q0 -8 -64 -20q-13 -12 -248 -52l-160 -20h-268q-77 0 -140 28q28 201 28 272l-4 4v4q16 104 16 248v144q0 208 -16 296l4 4q0 123 -32 416q-11 20 -16 116q-20 42 -20 100q-9 0 -16 48v16q8 18 96 40q0 10 52 16
q0 10 88 28l180 40q27 8 252 28zM468 1412q19 -33 28 -184l16 -108h4q110 0 236 60q77 41 104 72q27 27 44 76v44q0 47 -104 84l-40 4h-128q-160 -23 -160 -48zM528 712v-124l-8 -100l4 -16l-12 -60l4 -4h68q185 39 248 76q63 23 120 68q65 48 80 112l-4 4v4l4 16
q0 51 -164 72h-120l-176 -24q-44 -13 -44 -24z" />
    <glyph glyph-name="c" unicode="c" horiz-adv-x="1557" 
d="M1128 1860q60 0 60 -24l20 -116v-8h-4l4 -80v-8q-3 -221 -32 -260q-57 8 -152 8q-130 0 -180 -24q-68 -17 -144 -64q-127 -99 -160 -172q-6 0 -24 -44q-8 0 -8 -32q-19 0 -40 -144v-84q19 -111 36 -132q55 -128 176 -188q48 -29 136 -44q0 -8 48 -8h68q150 19 192 40
l84 40q65 39 84 60h8q20 0 36 -132q32 -174 40 -328q-48 -34 -104 -52q-11 -12 -56 -24q-2 -10 -56 -16q0 -12 -88 -24q-11 -10 -124 -20q0 -5 -72 -12v4l-4 -4h-68q-111 0 -200 20q-32 0 -76 20q-63 12 -164 68l-76 52q-1 9 -64 60q-128 153 -128 192q-34 39 -76 200
l-20 152q0 73 28 252q8 0 20 72q5 0 20 60q32 64 36 92q7 0 28 48q68 126 172 240q160 159 200 168q0 13 60 40q2 9 32 20q105 61 180 80q0 12 44 12q17 14 156 40z" />
    <glyph glyph-name="d" unicode="d" horiz-adv-x="1744" 
d="M660 1845q194 0 296 -24l88 -20q248 -64 408 -228q92 -106 112 -172q39 -63 48 -132q9 0 20 -100q6 0 12 -44l-4 -12l4 -44q0 -112 -20 -244q0 -38 -20 -100q0 -29 -52 -164q-39 -99 -136 -228q-8 0 -80 -80l-72 -60l-84 -56l-136 -64q-13 0 -48 -20q-158 -48 -184 -48
q0 -11 -88 -15q0 -16 -348 -36h-76l-172 20q-52 0 -52 24l8 415q0 442 -28 808q-24 213 -24 276q-15 66 -24 184q-8 0 -8 56q19 19 88 32q0 12 68 16q15 15 236 48q0 8 268 12zM532 1401q11 0 16 -232l12 -80l-4 -12l8 -96l4 -532l136 12h20q122 26 176 52q87 30 196 152
l40 84q0 15 20 56l20 116v148q0 57 -52 152q-53 81 -128 124l-32 16q0 8 -48 20q0 11 -52 16q0 15 -176 32q-156 -7 -156 -28z" />
    <glyph glyph-name="e" unicode="e" horiz-adv-x="1358" 
d="M1012 1836l160 -4l12 -16q-39 -113 -48 -204q-11 -30 -20 -156l-4 -4q0 -24 -24 -24v-4l-12 4l-276 -4h-40q-288 -14 -288 -32l-20 -276l16 -4q197 12 464 16l16 -24q0 -50 -24 -180q-8 -188 -32 -188h-8q-194 0 -436 -12l-12 -4l-4 -184q0 -95 80 -136q94 -28 128 -28
h152q402 20 492 36h12l4 -4v-12q-20 -29 -20 -68q-13 0 -20 -60q-9 0 -24 -68q-6 0 -20 -76q-8 0 -20 -60l-16 -36q-163 -24 -684 -24q-228 3 -228 24q-49 0 -68 20q-50 12 -116 84q-42 63 -56 128q-14 0 -28 272v40l4 32l-4 24q16 707 56 1024v56q0 47 112 52q14 16 104 16
q26 15 184 28l312 32z" />
    <glyph glyph-name="f" unicode="f" horiz-adv-x="1278" 
d="M820 1845l4 -4l40 4h336l12 -8q0 -41 -64 -352q0 -47 -36 -64h-44l-12 -4l-12 4q-191 0 -400 -24l-168 -28v-4l-16 -240l4 -16l-4 -60l20 -4q165 20 248 20h108l12 -12v-40l-12 -260q-6 -20 -28 -20h-56q-99 0 -184 -16l-4 4q-116 -5 -116 -16l-4 -360v-296
q-10 -23 -196 -36q-19 -11 -136 -28q0 -7 -60 -12q-26 -16 -40 -16l-12 12l4 304l4 20l-4 12q17 621 32 868q4 143 24 336q0 47 20 188v24q0 48 132 48q11 15 132 20q18 13 176 24q30 11 196 16z" />
    <glyph glyph-name="g" unicode="g" horiz-adv-x="1762" 
d="M1184 1856q132 0 208 -44q49 -20 104 -100q24 -38 24 -116l4 -4q-8 -119 -28 -160q0 -31 -96 -188q-16 -20 -44 -20q-12 -14 -108 -28q0 -8 -104 -20q0 -11 -108 -16l-8 12v12q18 14 28 72q12 3 12 32v40q-21 60 -68 60h-8q-78 0 -124 -24q-209 -94 -324 -328
q-24 -41 -36 -96q-9 0 -20 -76q-12 0 -20 -188q0 -177 152 -264q12 0 28 -16l140 -20q103 16 148 36q63 15 152 92v28l12 64l-4 4h-8q-39 -16 -108 -20q0 -10 -116 -24q0 -8 -88 -20q-12 -12 -52 -12h-4l-12 12v20q0 88 40 308q0 32 72 32q41 15 120 24q0 12 92 16
q0 12 116 24q11 10 96 16q15 12 144 28q0 8 68 8q64 24 144 24q28 16 72 16h12q24 -2 24 -12v-8q-40 -183 -40 -316q-16 -32 -80 -32q-108 0 -108 -16q0 -25 -24 -120l-20 -112q-20 -219 -20 -292q0 -15 -92 -28q-7 -9 -60 -20q0 -7 -64 -20q0 -8 -52 -20q0 -7 -48 -20
q-56 -36 -84 -36l-8 24l20 100l-4 4h-4l-84 -60q-23 -8 -40 -24q-13 0 -48 -20l-52 -20l-68 -19l-140 -20h-84l-128 24q-17 12 -56 19q0 9 -44 24q-126 76 -196 200q-56 114 -56 160q-14 0 -24 176l8 164v4q40 228 80 308q0 19 64 152q65 115 72 116q31 62 172 212
q162 145 232 176q0 9 36 20q0 8 40 20q30 26 168 72q62 20 172 40z" />
    <glyph glyph-name="h" unicode="h" horiz-adv-x="1597" 
d="M532 1888l8 -12l-40 -352q-10 -25 -20 -192q-9 0 -12 -108v-24l-4 -28l12 -8q49 20 120 24q7 12 132 24q0 11 112 16q55 20 152 20q12 14 16 72l-4 4v4q16 76 20 236q16 92 24 248q50 36 128 36q38 20 120 20q0 7 84 16h80l12 -8l-8 -424h-4l4 -4l-4 -184q0 -679 28 -824
l-4 -4l4 -28v-56l20 -176v-48q0 -12 -72 -20l-132 -20q0 -10 -92 -16q-9 -11 -96 -24q-9 -12 -28 -12h-20q-27 0 -32 176l-16 84l4 4l-4 28v44q-20 281 -20 404v68q0 8 -12 8q-59 -14 -176 -20q0 -10 -120 -20q-32 -20 -96 -20q0 -10 -76 -20q-2 -13 -68 -20l-4 -4v-4
q0 -92 16 -236l-4 -16q7 -31 12 -204q12 -53 16 -120q-17 -12 -112 -40q0 -8 -12 -8l-60 -24l-64 -20l-88 -28q0 -9 -60 -20q0 -12 -36 -12l-20 -16h-8q-23 0 -28 264v636l4 56l-4 4v4q20 144 28 348q10 0 16 176q20 68 20 156q14 59 24 172l8 20l124 28q98 0 160 20l4 -4
l28 4h72z" />
    <glyph glyph-name="i" unicode="i" horiz-adv-x="959" 
d="M599 1851q94 0 140 -68q32 -51 32 -112q-28 -83 -80 -156q-107 -120 -160 -140q-25 -30 -136 -68q0 -8 -48 -8l-52 -16q-69 4 -120 20q-92 67 -92 116v56q0 36 32 100q60 132 204 212q62 36 128 48q0 12 152 16zM623 1226q20 -3 20 -12q-12 -205 -12 -408q0 -212 20 -720
q-86 -32 -164 -32q0 -9 -104 -24l-128 -39q0 -10 -44 -16q0 -13 -60 -24l-8 8v119l4 36l-4 4v4q24 168 24 364l4 12l-4 16q16 109 16 252v344l16 16h28q122 20 284 60l88 28q4 12 24 12z" />
    <glyph glyph-name="j" unicode="j" horiz-adv-x="1434" 
d="M1181 1859h40q10 0 20 -100q8 -1 20 -128l20 -144q9 0 16 -160q7 -10 16 -100h-4l4 -4v-384l-4 -16l4 -4v-4q-20 -86 -24 -168q-36 -167 -80 -276q-56 -128 -148 -236q-100 -96 -168 -124q-68 -39 -132 -47q0 -14 -180 -28h-4q-188 13 -188 32q-83 14 -216 127
q-56 64 -100 144l-16 44q-28 44 -52 232q0 25 72 32q0 8 64 20q0 10 60 20q0 8 48 20q4 10 52 20q0 8 44 20q0 9 36 16q2 8 20 16q28 0 28 -28l-4 -20q9 -112 40 -180q8 0 12 -32q70 -80 112 -80h56q49 0 120 88q64 138 64 212q15 0 36 284v252q-20 250 -40 368
q0 51 -20 144v60q37 30 88 40q0 9 64 20q0 9 68 20q9 10 84 16q2 12 72 16z" />
    <glyph glyph-name="k" unicode="k" horiz-adv-x="1421" 
d="M372 1856h20l16 -16v-48l20 -124v-48q20 -203 20 -424v-20l8 -8q71 61 288 304q112 129 228 280l68 96l12 8h12l120 -84q14 0 160 -124l20 -24v-4l-104 -168q-9 0 -60 -84q-9 0 -44 -56l-88 -112l-160 -180v-4q20 -28 44 -108q6 -1 64 -124q119 -216 216 -368q8 0 40 -60
l72 -92v-4l-108 -84q-158 -122 -240 -204h-4q-67 58 -128 168q-108 163 -248 452l-68 168l-16 4q-53 -60 -80 -60l-4 -208v-36l-4 -64l4 -12q-20 -127 -20 -212v-44q-20 -155 -28 -160h-4q-32 16 -168 40q-83 20 -176 28q-52 13 -52 20v28l20 300l4 228l-4 4l4 12l4 260
q-8 724 -24 724l-4 108v28q0 21 108 32q6 12 96 24q9 10 68 16q0 12 64 20q18 16 36 16z" />
    <glyph glyph-name="l" unicode="l" horiz-adv-x="1131" 
d="M427 1852h16l12 -12v-44q0 -67 16 -156l-4 -16l8 -80v-48l16 -484v-56l-4 -12l4 -20v-88q0 -186 -12 -460l12 -4q125 20 284 24q61 16 188 16h52l64 4q16 -6 16 -12v-8q-20 -51 -28 -100q-12 0 -16 -76q-14 0 -20 -120q-16 -53 -24 -56l-572 -28q-44 -11 -216 -16
q-68 -19 -156 -19l-44 -16l-12 12v8l20 447l4 424q-3 700 -20 700l4 4v4l-8 128v52q0 24 128 32q0 14 88 20q9 11 96 24q0 6 80 24q0 7 28 8z" />
    <glyph glyph-name="m" unicode="m" horiz-adv-x="2002" 
d="M608 1859h56q22 -9 56 -124l48 -148q11 0 16 -68q14 -25 48 -172l44 -176l36 -176l52 -292l4 -4l72 268q11 12 16 72q15 13 64 208q8 0 20 60q12 22 40 136q11 0 16 56q15 0 20 60q10 0 24 64q9 7 20 60q10 0 16 48q13 16 28 60q21 62 40 68h20l176 -32l132 -28l72 -20
q60 0 60 -52v-104q16 -517 36 -720l20 -200l20 -172l20 -144q20 -149 40 -212v-32q-71 -65 -300 -143l-100 -28l-8 12v27q-24 127 -24 216q-15 34 -20 220q-11 0 -24 308q-11 0 -16 424v4h-4q0 -11 -24 -44l-40 -120l-20 -52l-80 -248l-28 -96q-9 0 -20 -60q-9 0 -16 -64
q-15 -18 -40 -136q-36 -118 -56 -216q-12 -96 -40 -96q-48 -8 -120 -8h-68q-164 0 -164 20l-24 200l-36 212q-16 50 -20 116q-13 11 -24 112q-10 0 -16 80q-9 3 -44 176q-7 0 -20 72l-4 12q-12 56 -20 56q-20 -89 -20 -268q-24 -137 -24 -248q-15 -58 -24 -212
q-9 0 -16 -144q-15 -18 -20 -140q-16 -24 -16 -72v-27l-12 -12h-12q-69 35 -88 35q-25 16 -80 28q0 10 -64 20q0 9 -72 20q0 10 -68 16l-4 4v4l40 184q9 0 16 96q13 0 24 120q11 22 32 192l20 148l20 152l20 252l4 288l-4 192l-4 20q0 28 96 40q0 8 84 20q0 9 96 20
q0 10 100 16q27 16 64 16z" />
    <glyph glyph-name="n" unicode="n" horiz-adv-x="1608" 
d="M520 1852q52 -107 52 -132l28 -52q52 -137 236 -488l124 -208l116 -180l8 8q16 280 16 412v512q7 44 80 44q27 0 92 20q47 0 216 60h12l12 -8q-5 -209 -12 -248l4 -16q-16 -151 -16 -380v-108q0 -301 16 -392l-4 -16l16 -232q10 0 16 -188q6 0 16 -92v-60q0 -21 -76 -36
q0 -9 -60 -20q0 -8 -56 -20q0 -8 -60 -20q0 -8 -52 -19q0 -8 -52 -20l-12 -12h-8l-60 79q-21 21 -196 276l-80 124l-112 184q-125 205 -212 388q-52 93 -52 116h-12l4 -140q-4 -837 -16 -1015l-20 -12q-42 20 -172 39q-89 20 -180 28q-64 14 -64 24v20l4 24l-4 4v4
q24 157 24 500l-4 4l4 12l8 376v36q0 200 -8 284l4 4v4q-9 253 -28 412q15 36 68 36q0 15 60 20q0 14 164 44q0 12 228 16z" />
    <glyph glyph-name="o" unicode="o" horiz-adv-x="1669" 
d="M877 1849h124q145 -20 172 -40q76 -15 208 -116q142 -142 168 -236q13 -10 24 -64q9 0 20 -76q10 0 12 -48v-20l4 -76q0 -181 -24 -284q0 -45 -56 -220q-69 -197 -196 -364q-131 -144 -184 -172q-46 -42 -184 -104q-132 -48 -152 -48l-124 -20h-136q-44 0 -204 60
l-116 80q-129 140 -144 196q-49 76 -92 272v24l-4 112l4 112v12q20 151 60 272l24 64q20 33 20 60q6 0 64 120q16 0 16 28l128 168q98 105 124 116q104 86 200 124q0 8 24 8q4 12 76 28q0 11 96 20q0 10 48 12zM821 1381l-60 -20q-12 0 -32 -20q-58 -21 -144 -136
q-128 -181 -128 -392l4 -24l-4 -4v-4q3 -104 48 -200q26 -47 52 -72q82 -68 148 -68q0 -6 60 -12q120 18 148 40q38 15 116 100q71 94 100 184q52 129 52 268q0 148 -44 220q-1 22 -80 92l-32 16q0 5 -80 32h-68l-4 4l-4 -4h-48z" />
    <glyph glyph-name="p" unicode="p" horiz-adv-x="1618" 
d="M796 1856q139 0 228 -24q24 0 116 -32q151 -48 280 -172q80 -100 96 -156q8 0 20 -56q11 0 24 -160q0 -110 -56 -248q-10 0 -20 -36q-15 -9 -48 -68q-130 -135 -168 -148q-65 -51 -136 -84q-134 -68 -256 -104l-36 -8q-5 -13 -132 -36q-49 -20 -216 -48
q-28 -105 -28 -280q-16 -60 -16 -132v-8q0 -22 -132 -40q0 -11 -104 -16q-18 -14 -132 -19q-30 -16 -68 -16q-10 0 -12 16q20 107 24 259q15 47 24 332q13 0 16 744l-4 432q27 28 84 28q2 14 84 20q13 14 104 20q0 12 156 24q0 8 84 12zM500 1452l8 -40v-8h-4l4 -48v-284
q0 -119 -8 -172h16l116 20q0 8 84 20q0 8 60 20q0 10 56 16l116 64q91 70 100 116q11 0 24 96q-11 89 -40 124q-17 28 -32 28q-72 64 -164 64q0 11 -60 16h-116q-160 -17 -160 -32z" />
    <glyph glyph-name="q" unicode="q" horiz-adv-x="1900" 
d="M956 1854l140 -4q123 -20 220 -52l40 -16q0 -12 36 -12l92 -56q164 -109 248 -268q55 -103 64 -152q10 0 20 -76q13 0 32 -212v-28q0 -79 -8 -104l4 -16q-16 -35 -20 -120q-11 0 -24 -76l-68 -152q-41 -89 -184 -252v-4q14 -21 116 -64q44 0 44 -32v-32
q-20 -166 -60 -255q0 -48 -36 -48h-44l-116 28q0 8 -56 20q0 7 -36 16q0 6 -56 32l-128 95h-4q0 -10 -128 -31l-156 -16h-60q-212 16 -212 35q-19 0 -100 28l-116 60q0 9 -28 20q-86 60 -156 136q-124 158 -124 192q-34 50 -36 92q-15 0 -20 64q-13 0 -36 168v208
q20 160 60 276q123 327 384 472q0 12 24 12q22 25 96 48q0 12 36 12q4 13 76 28q14 11 152 32zM440 910q8 -134 28 -188q22 -92 108 -196q55 -55 116 -92q92 -44 188 -64h36l8 8q-87 143 -88 180q0 11 40 16q0 10 56 24l124 60l104 64q73 -172 108 -172q63 83 92 160
q44 94 44 244q0 126 -24 176l-20 60l-20 36q-49 88 -152 152l-96 44l-108 20h-76q-148 -21 -148 -40q-37 0 -148 -80q-94 -97 -112 -156q-36 -63 -36 -108q-15 0 -24 -148z" />
    <glyph glyph-name="r" unicode="r" horiz-adv-x="1475" 
d="M642 1852l256 -4l204 -40l84 -32q37 -13 104 -56q93 -79 120 -128q48 -91 48 -132l20 -108l-20 -176q-26 -92 -32 -92q-32 -122 -204 -296q-160 -130 -248 -160q0 -8 -32 -8l-8 -12q69 -61 184 -132q21 -19 152 -88q104 -53 104 -60q12 0 12 -16q-126 -173 -312 -312
l-48 -35h-8q-60 42 -172 155q-74 75 -164 184q-22 18 -160 200l-8 -12l4 -20v-16q0 -74 -20 -256q0 -37 -20 -128v-16q0 -24 -188 -32h-88l-16 -4q-132 15 -132 32q15 67 24 212q14 0 20 576q-7 696 -28 696v8h4q-4 107 -20 200q15 19 180 64q22 0 84 20q43 0 116 20z
M558 1460h-36l-20 -4q16 -40 20 -500v-24l-4 -12l4 -12h52q174 24 260 80q12 0 32 20q65 24 144 140q23 35 32 132v4l-16 72q-37 56 -84 76q-59 28 -112 28l-120 12q-63 0 -152 -12z" />
    <glyph glyph-name="s" unicode="s" horiz-adv-x="1701" 
d="M853 1863h328l188 -28q0 -8 76 -20q0 -10 60 -16q0 -12 52 -20l4 -4v-12q-35 -67 -44 -104l-48 -108q-5 0 -8 -32q-10 -4 -60 -132l-16 -32q0 -36 -32 -36q-62 36 -268 76l-236 20l-236 -24q0 -14 -64 -20q-4 -11 -44 -20q-52 -44 -52 -72v-12q0 -61 108 -104
q45 -20 72 -20q46 -24 112 -24q5 -14 104 -20q39 -15 132 -24q0 -10 100 -16q0 -14 88 -20q2 -15 68 -20q0 -12 60 -20q0 -11 52 -24l128 -76q136 -118 136 -288q-8 -124 -36 -188q-12 -7 -12 -36q-11 -6 -48 -72q-10 0 -44 -52q-118 -107 -192 -136q0 -11 -36 -16
q-12 -14 -52 -24q-59 -33 -180 -56q-19 -15 -116 -24q-5 -10 -228 -28h-60q-300 19 -300 36q-38 0 -100 20l-64 20q-15 0 -56 20q-13 0 -48 20q-44 5 -44 40q20 77 28 156l24 128q7 0 12 88l20 52l4 4h12q17 -23 108 -60q43 -20 68 -20q5 -12 88 -32q0 -8 68 -12
q0 -14 120 -20l4 -4h4l12 4l84 -8l128 12l4 -4l20 4h44q114 18 152 40l44 20q47 32 52 68v32q0 32 -168 72q-27 0 -104 20l-124 20l-116 24q-143 36 -236 76q-14 0 -40 20q-23 0 -152 92q-103 101 -132 192l-28 116v64q0 69 28 152q20 68 100 168q90 81 152 112
q39 30 140 64q69 26 116 36q0 8 92 20q9 9 228 32z" />
    <glyph glyph-name="t" unicode="t" horiz-adv-x="1536" 
d="M1432 1892q20 0 32 -20l-16 -364q-70 -32 -196 -32q-39 -16 -156 -20q-37 -15 -156 -20l-4 -4l4 -20v-48l4 -100h-4l4 -4v-4q0 -503 24 -892q0 -91 16 -196l-4 -4v-4l8 -68q-46 -36 -144 -36q-38 -13 -140 -24q0 -11 -144 -16q-54 -16 -92 -16h-16l-12 8q20 167 28 416
q12 76 32 728v232l-8 8l-272 -24q0 -8 -184 -12l-16 -8q-18 8 -20 16v60q20 165 20 228v140q0 28 52 28l24 4l4 -4h4q36 7 272 12q37 11 408 24q94 10 368 20q0 5 48 8l4 -4h4q39 8 108 8h92z" />
    <glyph glyph-name="u" unicode="u" horiz-adv-x="1701" 
d="M728 1853h16l8 -8v-8l-24 -56q-15 -21 -36 -88q-35 -72 -92 -268q-7 0 -12 -60q-12 0 -24 -72q-52 -189 -60 -260q-10 -21 -20 -96l-28 -224v-8q0 -108 48 -200q33 -38 68 -64q69 -28 112 -28l156 28q0 12 56 16q0 7 128 68q40 28 40 40v8h-4l4 40v164q20 313 40 476
l20 156q0 34 20 128q0 36 20 116q9 100 40 100l188 44q25 15 104 24q0 8 92 20q8 10 52 12h4l12 -8q0 -40 -24 -132l-20 -116l-20 -128q-24 -164 -24 -212q-14 -20 -20 -180q-15 -40 -36 -420v-260q22 -256 40 -256l4 -20q0 -28 -84 -44q0 -7 -56 -20q-7 -9 -60 -20
q0 -11 -52 -16q-6 -9 -72 -27q0 -8 -48 -12q0 -10 -56 -24l-4 -4h-8l-12 12v24l-20 127l4 16l-4 12h-8q-97 -102 -368 -159l-124 -16h-84q-102 16 -164 35q-81 40 -148 92q-87 91 -120 164q-51 110 -52 160q-12 0 -16 152l4 84v76l40 264q24 95 24 128q20 25 20 88
q11 0 24 88q9 0 20 72q9 0 16 64q9 0 24 80q8 0 20 64q5 0 28 88q18 70 36 84q22 0 72 20q24 0 84 20l88 20q29 0 92 20z" />
    <glyph glyph-name="v" unicode="v" horiz-adv-x="1869" 
d="M452 1808h24q14 -7 68 -124q47 -87 108 -236q20 -33 20 -56l32 -68q68 -187 108 -328l20 -72l28 -144q9 0 20 -108l4 -20l4 -4h4q12 0 16 80l40 160l48 164q15 68 24 68q0 23 24 80l40 120l20 52q100 267 172 404l16 32h32l120 -32l200 -68l60 -20q88 -28 88 -44l4 -16
q-238 -402 -388 -740q-32 -57 -64 -148q-24 -42 -76 -176l-68 -172l-16 -56l-48 -128q-24 -56 -24 -80q-14 -21 -36 -96q-10 -32 -20 -32h-364q-21 0 -40 100l-16 56q-9 0 -16 60q-15 24 -44 136q-8 0 -20 60q-6 1 -32 80l-40 112l-124 304l-52 112q-119 264 -300 576
q-7 0 -8 20v16q0 11 48 24l96 40q0 8 56 20q0 12 32 12q25 24 64 24q0 15 56 20q0 9 64 24q0 9 36 12z" />
    <glyph glyph-name="w" unicode="w" horiz-adv-x="2129" 
d="M508 1852q28 -68 28 -204q12 0 20 -216q20 -87 20 -260q14 -62 24 -420l4 -4q0 -12 8 -12q12 19 16 72q10 13 28 100q7 0 12 64q12 0 24 84q9 0 20 72q36 99 36 140q13 3 20 68q15 29 56 184l20 56q0 19 20 64q0 60 80 68q59 20 112 28q0 12 84 16q0 13 120 20
q11 11 40 12q12 -14 12 -28v-376l20 -572v-8l8 -8q24 115 56 208q48 174 144 448q7 36 24 64q0 22 40 112l20 56l60 152l12 20q44 0 124 -28q111 -34 144 -56q17 0 88 -44q28 -11 28 -32l-76 -176l-104 -264l-28 -76l-40 -108l-124 -388q-40 -123 -40 -148q-20 -23 -20 -76
q-12 0 -24 -84q-12 0 -16 -68q-12 -6 -24 -92q-11 0 -16 -72q-12 -21 -24 -92q0 -13 -216 -28l-184 -27q-10 -8 -92 -20l-12 -4h-8q-24 0 -32 339q-9 0 -24 304q-5 0 -12 164l-4 4h-4l-36 -156q-7 0 -12 -64q-11 0 -24 -88q-9 0 -20 -76q-8 0 -20 -80q-10 0 -20 -80
q-10 0 -16 -76q-11 0 -24 -88q-11 0 -16 -72l-16 -35h-4l-116 16h-248q-34 0 -104 -20q-16 4 -16 16q0 85 -20 207l4 4l-4 20v48q-40 397 -100 792l-28 176q-9 13 -20 112q-52 273 -92 396v4q34 32 96 32q17 20 80 20q21 17 116 28q0 12 88 16q13 15 124 20z" />
    <glyph glyph-name="x" unicode="x" horiz-adv-x="1650" 
d="M1208 1912h32q51 0 208 -48q8 -8 52 -20q77 -35 100 -64v-4l-32 -52q-91 -171 -276 -476q-6 0 -60 -96l-68 -100q-6 -18 -104 -156q7 0 112 -132q278 -284 328 -308l60 -56l-48 -144l-24 -64l-68 -164q0 -25 -32 -28h-8q-242 189 -448 396l-120 120h-12q0 -17 -124 -164
l-136 -168q-120 -136 -152 -160h-20l-60 4l-20 -4q-77 24 -140 24q0 10 -76 20q0 9 -56 24l-16 20v8q191 219 324 408q84 108 184 268q28 26 28 48l-140 200l-124 196l-60 100l-104 204l-20 52q0 40 36 40q2 10 280 140l124 52q10 -10 20 -52q11 0 16 -48q6 0 56 -120
q82 -189 188 -352l96 152l128 220l40 72l92 168q18 44 44 44z" />
    <glyph glyph-name="y" unicode="y" horiz-adv-x="1662" 
d="M432 1852q12 -14 12 -28v-92q19 -157 40 -212q94 -320 320 -320h4q85 0 152 52q122 89 176 304l20 136v44q0 18 164 24h24l160 -12h64l16 -16v-24q0 -100 -44 -312l-44 -120l-40 -84q-41 -69 -88 -128q-118 -139 -188 -172q-30 -26 -96 -52q-27 -18 -116 -44
q-5 -328 -12 -328l4 -16q-16 -120 -16 -232v-56l-4 -36l4 -4v-4q-17 -159 -28 -159h-8q-81 0 -212 20l-84 19q-156 29 -156 56q40 142 72 424q8 0 8 60v48q0 80 8 104l-4 28l4 88q-15 12 -56 16q0 13 -44 20q0 10 -44 24q0 12 -20 12q-181 133 -228 244q-20 3 -20 36
q-20 12 -20 36l-4 4q-48 110 -60 172q-9 0 -20 100q-9 0 -28 220v44q0 9 52 20q0 8 64 20q0 8 72 20q90 32 212 52z" />
    <glyph glyph-name="z" unicode="z" horiz-adv-x="1585" 
d="M1512 1835l8 -12v-12q-15 -50 -24 -144q-10 0 -16 -84q-20 -43 -20 -100q-14 0 -20 -80q-11 0 -24 -84q-6 0 -24 -72q-7 0 -12 -52q-31 -38 -48 -44q-140 -88 -428 -352l-104 -112q-132 -148 -256 -308v-4l4 -4v-4l244 24l428 8h16l172 -8h24q76 -7 76 -28q0 -29 -24 -88
l-20 -64l-80 -208q-24 -41 -24 -58q-24 -16 -36 -16q-35 20 -128 20q0 16 -416 35h-216q-418 -19 -512 -39q-36 0 -36 66l-12 132v28q20 177 52 188q0 15 80 108q0 11 268 312q101 113 280 292l316 312v8h-8v4l-252 -12l-4 4l-40 -4h-92l-232 -28q0 -10 -100 -16
q0 -10 -60 -16h-8l-8 8v32l20 100q0 28 40 180q21 124 52 124l12 4h36l116 20h44l144 20l4 -4l20 4h48q227 20 468 20z" />
    <glyph glyph-name="braceleft" unicode="{" horiz-adv-x="684" 
 />
    <glyph glyph-name="bar" unicode="|" horiz-adv-x="532" 
 />
    <glyph glyph-name="braceright" unicode="}" horiz-adv-x="684" 
 />
    <glyph glyph-name="asciitilde" unicode="~" horiz-adv-x="1196" 
d="M249 1099q166 -17 180 -32q26 0 64 -24l132 -60l64 -20l104 -16h16q125 0 224 80h12q32 -48 32 -84q16 -16 28 -72q9 0 12 -36v-48q-69 -83 -196 -112h-112q-97 22 -176 60q-124 64 -276 64q-140 0 -260 -56l-8 -8h-8l-12 12v20q-20 100 -40 160l-24 88q71 52 112 52
q0 12 132 32z" />
    <glyph glyph-name="Adieresis" unicode="&#xc4;" horiz-adv-x="1366" 
 />
    <glyph glyph-name="Aring" unicode="&#xc5;" horiz-adv-x="1366" 
 />
    <glyph glyph-name="Ccedilla" unicode="&#xc7;" horiz-adv-x="1479" 
 />
    <glyph glyph-name="Eacute" unicode="&#xc9;" horiz-adv-x="1366" 
 />
    <glyph glyph-name="Ntilde" unicode="&#xd1;" horiz-adv-x="1479" 
 />
    <glyph glyph-name="Odieresis" unicode="&#xd6;" horiz-adv-x="1593" 
 />
    <glyph glyph-name="Udieresis" unicode="&#xdc;" horiz-adv-x="1479" 
 />
    <glyph glyph-name="aacute" unicode="&#xe1;" 
 />
    <glyph glyph-name="agrave" unicode="&#xe0;" 
 />
    <glyph glyph-name="acircumflex" unicode="&#xe2;" 
 />
    <glyph glyph-name="adieresis" unicode="&#xe4;" 
 />
    <glyph glyph-name="atilde" unicode="&#xe3;" 
 />
    <glyph glyph-name="aring" unicode="&#xe5;" 
 />
    <glyph glyph-name="ccedilla" unicode="&#xe7;" horiz-adv-x="1024" 
 />
    <glyph glyph-name="eacute" unicode="&#xe9;" 
 />
    <glyph glyph-name="egrave" unicode="&#xe8;" 
 />
    <glyph glyph-name="ecircumflex" unicode="&#xea;" 
 />
    <glyph glyph-name="edieresis" unicode="&#xeb;" 
 />
    <glyph glyph-name="iacute" unicode="&#xed;" horiz-adv-x="569" 
 />
    <glyph glyph-name="igrave" unicode="&#xec;" horiz-adv-x="569" 
 />
    <glyph glyph-name="icircumflex" unicode="&#xee;" horiz-adv-x="569" 
 />
    <glyph glyph-name="idieresis" unicode="&#xef;" horiz-adv-x="569" 
 />
    <glyph glyph-name="ntilde" unicode="&#xf1;" 
 />
    <glyph glyph-name="oacute" unicode="&#xf3;" 
 />
    <glyph glyph-name="ograve" unicode="&#xf2;" 
 />
    <glyph glyph-name="ocircumflex" unicode="&#xf4;" 
 />
    <glyph glyph-name="odieresis" unicode="&#xf6;" 
 />
    <glyph glyph-name="otilde" unicode="&#xf5;" 
 />
    <glyph glyph-name="uacute" unicode="&#xfa;" 
 />
    <glyph glyph-name="ugrave" unicode="&#xf9;" 
 />
    <glyph glyph-name="ucircumflex" unicode="&#xfb;" 
 />
    <glyph glyph-name="udieresis" unicode="&#xfc;" 
 />
    <glyph glyph-name="dagger" unicode="&#x2020;" 
 />
    <glyph glyph-name="degree" unicode="&#xb0;" horiz-adv-x="902" 
d="M329 1840h140l96 -24q0 -9 44 -24q98 -50 144 -172l20 -72v-92q-20 -81 -40 -124q-51 -99 -152 -160q-49 -24 -76 -24q0 -13 -128 -28h-20q-121 10 -160 32q-108 51 -172 196l-20 124q21 138 76 204q0 20 104 104q59 37 144 60zM237 1448q24 -112 52 -112q0 -16 80 -36
h20q80 0 136 92l20 84v52q-15 66 -60 92q-12 12 -64 24h-28q-82 -17 -100 -44q-56 -64 -56 -152z" />
    <glyph glyph-name="cent" unicode="&#xa2;" 
d="M862 1857q16 -6 16 -12v-132l-4 -96q6 -16 12 -16q24 12 76 12h116q40 0 40 -48l4 -148q0 -172 -28 -172v-4l-68 4h-120q-69 0 -212 -48q0 -8 -44 -20q-80 -44 -144 -108q-85 -102 -100 -212q-7 0 -8 -40v-48q20 -88 72 -128q62 -52 88 -52q0 -11 100 -32l16 -4h160
q130 19 176 40q15 0 128 52q0 8 24 8q22 24 40 24h4q18 0 40 -136q12 0 16 -100q16 -24 16 -72v-56q-19 -28 -60 -28q-26 -24 -68 -24q0 -9 -88 -28q-146 -28 -200 -28h-16l-8 -8v-64q0 -124 -56 -124l-216 -24h-8q-21 0 -24 12q16 99 16 196q0 20 -44 20q-154 35 -248 100
q-133 115 -156 172q-24 24 -72 148l-20 100v80q0 31 20 124q19 67 40 112q31 79 124 196q116 120 176 156q70 57 204 116v28l4 44l-4 4v4l16 148v44q0 44 56 44l128 20h52z" />
    <glyph glyph-name="sterling" unicode="&#xa3;" horiz-adv-x="1402" 
d="M768 1852l136 -4q69 -24 92 -24q119 -49 200 -128l52 -56v-12l-212 -248l-12 -16l-4 -4h-12q-99 140 -196 140l-36 4q-79 0 -104 -28q-68 -50 -68 -88q-35 -34 -56 -228v-116q0 -8 12 -8l300 12l8 -12v-64l-4 -120q-28 -28 -44 -28h-64l-204 -4l-16 -8l4 -16l-12 -300
v-36q-8 -85 -20 -124l12 -8q45 24 140 24q52 20 164 20q0 6 96 16h48l296 12l32 4q12 -15 12 -28v-8q-35 -51 -72 -132q-6 0 -16 -40q-11 0 -16 -56q-13 0 -24 -84q-11 -16 -28 -16q-233 0 -388 -20l-4 4l-40 -4h-60l-324 -32q0 -6 -128 -12q0 -6 -72 -16l-16 12v52
q24 134 24 212q16 49 16 108v44q20 154 20 224v160l4 16q-5 24 -12 24l-132 -12h-28l-12 12v184l12 12h36q121 0 136 28v28l4 36l-4 16q20 163 44 260l56 148q41 77 64 104q58 87 144 140q18 18 48 28q97 56 228 56z" />
    <glyph glyph-name="section" unicode="&#xa7;" 
 />
    <glyph glyph-name="bullet" unicode="&#x2022;" horiz-adv-x="892" 
d="M390 1255h144q139 -35 204 -116q48 -74 48 -156q0 -83 -28 -148q-37 -122 -180 -224q-111 -68 -216 -68q0 -5 -52 -8q-119 12 -164 40q-43 29 -84 76q-32 40 -52 120v112q22 94 72 168q84 117 196 168q23 16 52 16q23 20 60 20z" />
    <glyph glyph-name="paragraph" unicode="&#xb6;" horiz-adv-x="1100" 
 />
    <glyph glyph-name="germandbls" unicode="&#xdf;" horiz-adv-x="1251" 
 />
    <glyph glyph-name="registered" unicode="&#xae;" horiz-adv-x="1897" 
d="M907 1794h40l180 -20q0 -10 84 -24q0 -8 60 -20q0 -7 52 -20q0 -9 40 -16l76 -48q144 -88 248 -244q54 -99 84 -208q12 -14 16 -104q7 0 12 -68v-8h-4l4 -40v-84l-24 -156q-11 -9 -16 -68q-9 -5 -24 -68q-7 0 -20 -48l-60 -112q-131 -188 -304 -280l-4 -4
q-128 -64 -156 -64q-36 -20 -100 -28q0 -9 -144 -24q0 -8 -40 -8h-152q-161 20 -272 68q0 9 -40 16l-100 60l-128 108q-134 169 -140 220q-24 21 -24 60q-16 0 -40 144l-16 80v136q19 146 44 228q16 28 16 60q8 5 68 132q49 81 152 200q87 74 172 128q168 90 236 92
q0 14 164 28zM263 906v-84q0 -99 64 -264q37 -72 88 -132q119 -113 212 -136q0 -8 64 -20q0 -12 224 -28l136 16q53 20 76 20q19 24 52 24l68 48q85 58 136 140q19 21 48 76q72 159 72 220q13 0 16 156q0 126 -24 192q0 16 -40 100q-32 65 -108 140q-116 97 -236 124
q0 9 -84 20q0 10 -48 12h-160q-148 -23 -248 -92q-140 -100 -208 -224q-39 -69 -56 -120q-24 -57 -44 -188zM947 1354h36q128 -18 164 -36q18 0 52 -20q96 -40 136 -140l8 -32v-68q-32 -141 -112 -204q-27 -34 -68 -52q-35 -30 -128 -68l-36 -8v-4q71 -63 164 -116l32 -16
q0 -6 40 -20q3 -8 36 -16l4 -4v-8q-72 -64 -184 -144h-4q-168 121 -292 288v4h-8l-4 -4h-4l4 -36q-21 -217 -28 -228l-8 -8q-101 16 -168 16h-8q-21 0 -24 12l12 108l-4 4q20 109 20 364q0 138 -20 292v56q0 17 76 40q0 8 80 20q0 12 236 28zM767 1118q16 -56 16 -176v-76
l8 -8h48q131 22 192 80q64 59 64 140q-32 76 -96 76q0 12 -64 16h-16q-63 0 -152 -48v-4z" />
    <glyph glyph-name="copyright" unicode="&#xa9;" horiz-adv-x="1897" 
d="M916 1805q184 -16 244 -36q23 0 80 -20q151 -51 228 -112q106 -61 220 -220l60 -132q40 -89 56 -308q-16 -208 -36 -260q0 -20 -20 -68q-32 -108 -124 -244q-99 -120 -176 -172l-68 -44q-71 -48 -164 -76q-14 -12 -56 -16q0 -14 -80 -20q0 -16 -128 -20q0 -6 -80 -12
l-12 4l-36 -4h-8l-152 16q-88 20 -136 40q-49 12 -148 72q-50 30 -136 104q-145 161 -168 256q-9 0 -28 64l-16 56q-12 0 -32 224l8 84l-4 4v4q15 37 20 120q16 10 16 64q18 26 28 72q7 3 24 52q54 105 88 148q33 53 116 132q79 78 132 104q48 37 176 88l52 20l100 20z
M268 865q19 -177 36 -204q22 -104 124 -228q64 -59 96 -72q0 -11 28 -16q31 -27 100 -44q0 -12 136 -32l48 -4l4 4h4l72 -8l24 4l4 -4h4q99 8 156 28q230 79 348 324q24 46 36 104q10 0 20 80q13 0 16 148q0 130 -24 196q0 32 -84 180q-7 0 -60 60q-110 88 -176 108l-92 32
l-108 20h-156q-95 -6 -220 -76q-52 -24 -156 -128q-45 -50 -88 -132q-32 -51 -52 -116q-20 -55 -28 -132q-9 0 -12 -92zM988 1433q100 0 100 -36l4 -196v-44l4 -20l-16 -12h-4q0 16 -128 36h-8q-84 0 -164 -72q-56 -64 -68 -128v-96q25 -118 72 -156q57 -49 148 -60h76
q103 24 120 52l4 4h20q21 0 24 -104q8 0 16 -96v-68q0 -15 -48 -20q0 -17 -84 -20q-12 -12 -52 -12q-283 0 -408 160q-23 13 -64 92q-32 64 -52 196v92q20 162 68 244q77 154 236 220q25 19 104 36z" />
    <glyph glyph-name="trademark" unicode="&#x2122;" horiz-adv-x="1507" 
d="M838 1751h24l16 -16v-8h-4q0 -108 32 -344q8 0 20 -108l12 -40h4q8 0 8 24q60 156 68 196q7 0 20 56q6 2 60 164q9 1 16 44l4 4h8q35 -12 88 -16q2 -9 80 -24l4 -28v-244q20 -229 76 -400q0 -27 -36 -32q0 -12 -52 -24q0 -11 -84 -16q-11 0 -16 92q-14 22 -24 176
q-8 0 -12 136l4 32q-5 20 -12 20l-64 -208l-20 -100q-12 -112 -44 -112q-117 -12 -152 -28q-8 0 -20 52q-7 0 -20 80q-8 0 -20 92q-11 0 -16 96q-7 0 -12 28q-16 0 -24 -172q-12 -33 -12 -92v-72q0 -24 -16 -24q-83 28 -152 32l-4 4q0 100 68 488l24 120q11 0 16 76
q21 56 56 56q2 12 76 28q3 12 32 12zM602 1735q18 -8 20 -16v-44l-4 -120l-16 -12h-48q-160 -10 -160 -28v-28l-4 -32l4 -32v-24l-4 -20q10 -300 24 -384q-22 -32 -72 -32l-100 -20h-36l-16 16q24 154 24 408l-4 4l12 144l-120 -12h-80q-10 0 -12 16l8 100l-4 32v24
q17 36 84 36q202 0 316 20l4 -4l40 4h108z" />
    <glyph glyph-name="acute" unicode="&#xb4;" horiz-adv-x="682" 
 />
    <glyph glyph-name="dieresis" unicode="&#xa8;" horiz-adv-x="682" 
 />
    <glyph glyph-name="notequal" unicode="&#x2260;" horiz-adv-x="1124" 
 />
    <glyph glyph-name="AE" unicode="&#xc6;" horiz-adv-x="2048" 
 />
    <glyph glyph-name="Oslash" unicode="&#xd8;" horiz-adv-x="1593" 
 />
    <glyph glyph-name="infinity" unicode="&#x221e;" horiz-adv-x="1460" 
 />
    <glyph glyph-name="plusminus" unicode="&#xb1;" horiz-adv-x="1124" 
 />
    <glyph glyph-name="lessequal" unicode="&#x2264;" horiz-adv-x="1124" 
 />
    <glyph glyph-name="greaterequal" unicode="&#x2265;" horiz-adv-x="1124" 
 />
    <glyph glyph-name="yen" unicode="&#xa5;" horiz-adv-x="1502" 
d="M1412 1768h12l12 -12v-4q-12 -11 -24 -60q-7 0 -20 -52q-76 -174 -180 -384l-84 -156q-10 -30 -28 -48l-4 -24h8v-4l60 4h164l12 -12v-4q-24 -108 -24 -180l-16 -8l-332 -4q-28 -47 -68 -92v-28l4 -20l60 8h8v-4l140 4h216l12 -12l-20 -116v-44l-16 -16h-8
q-392 -4 -392 -16l-4 -16v-456q0 -9 -20 -12q-34 20 -140 20q-76 0 -152 -16h-4q-12 4 -12 24v416l-4 20l-28 -4h-36l-360 -36l-8 12q0 86 -24 152v8q0 30 228 36l76 16l4 -4l20 4h60q72 0 72 12v48q0 26 -68 80l-28 -8l-4 4l-20 -4h-40q-46 0 -172 -20h-76q-32 0 -32 72
q0 51 -20 92v12q0 17 168 32h72l16 4l16 -4l4 4v4q-132 192 -276 428q0 12 -20 32l-92 176v4q0 11 40 16q0 11 48 24q51 32 84 40q0 12 32 12q0 13 80 40l24 16q32 0 40 -68q9 0 16 -44q9 0 24 -60l4 -4q29 -80 136 -304l116 -220q12 0 24 -36q8 0 16 -28l104 8
q124 207 232 488q10 0 16 52q11 0 24 60q10 0 16 60l28 40l176 28q0 10 80 16q10 16 52 16z" />
    <glyph glyph-name="mu" unicode="&#xb5;" horiz-adv-x="1180" 
 />
    <glyph glyph-name="partialdiff" unicode="&#x2202;" horiz-adv-x="1012" 
 />
    <glyph glyph-name="summation" unicode="&#x2211;" horiz-adv-x="1460" 
 />
    <glyph glyph-name="product" unicode="&#x220f;" horiz-adv-x="1686" 
 />
    <glyph glyph-name="glyph155" horiz-adv-x="1124" 
 />
    <glyph glyph-name="integral" unicode="&#x222b;" horiz-adv-x="561" 
 />
    <glyph glyph-name="ordfeminine" unicode="&#xaa;" horiz-adv-x="758" 
 />
    <glyph glyph-name="ordmasculine" unicode="&#xba;" horiz-adv-x="748" 
 />
    <glyph glyph-name="Omega" unicode="&#x2126;" horiz-adv-x="1573" 
 />
    <glyph glyph-name="ae" unicode="&#xe6;" horiz-adv-x="1821" 
 />
    <glyph glyph-name="oslash" unicode="&#xf8;" horiz-adv-x="1251" 
 />
    <glyph glyph-name="questiondown" unicode="&#xbf;" horiz-adv-x="1251" 
 />
    <glyph glyph-name="exclamdown" unicode="&#xa1;" horiz-adv-x="682" 
 />
    <glyph glyph-name="logicalnot" unicode="&#xac;" horiz-adv-x="1196" 
 />
    <glyph glyph-name="radical" unicode="&#x221a;" horiz-adv-x="1124" 
 />
    <glyph glyph-name="florin" unicode="&#x192;" 
 />
    <glyph glyph-name="approxequal" unicode="&#x2248;" horiz-adv-x="1124" 
 />
    <glyph glyph-name="Delta" unicode="&#x2206;" horiz-adv-x="1253" 
 />
    <glyph glyph-name="guillemotleft" unicode="&#xab;" 
 />
    <glyph glyph-name="guillemotright" unicode="&#xbb;" 
 />
    <glyph glyph-name="ellipsis" unicode="&#x2026;" horiz-adv-x="2048" 
 />
    <glyph glyph-name="Agrave" unicode="&#xc0;" horiz-adv-x="1366" 
 />
    <glyph glyph-name="Atilde" unicode="&#xc3;" horiz-adv-x="1366" 
 />
    <glyph glyph-name="Otilde" unicode="&#xd5;" horiz-adv-x="1593" 
 />
    <glyph glyph-name="OE" unicode="&#x152;" horiz-adv-x="2048" 
 />
    <glyph glyph-name="oe" unicode="&#x153;" horiz-adv-x="1933" 
 />
    <glyph glyph-name="endash" unicode="&#x2013;" 
 />
    <glyph glyph-name="emdash" unicode="&#x2014;" horiz-adv-x="2048" 
 />
    <glyph glyph-name="quotedblleft" unicode="&#x201c;" horiz-adv-x="1372" 
d="M407 1846q124 -9 188 -28q48 0 76 -20v-16q-72 -120 -100 -196l-28 -56q-19 -33 -32 -80q-28 -50 -52 -144q-14 -25 -32 -104q-15 -12 -28 -12h-140q-89 0 -196 -20h-36l-12 12v8q32 59 80 184q11 7 64 120q7 0 64 104q157 248 184 248zM1003 1846q131 -8 216 -28
q60 0 60 -36l-92 -168q-8 0 -8 -32q-17 -10 -60 -124q-40 -94 -68 -196q-7 0 -16 -64l-12 -8h-164q-74 0 -200 -20h-20l-12 12q24 85 88 208q72 147 176 304z" />
    <glyph glyph-name="quotedblright" unicode="&#x201d;" horiz-adv-x="1352" 
d="M617 1843h36l8 -8v-8l-28 -60l-36 -88q-8 -5 -20 -44q-11 0 -16 -36l-68 -116q-88 -152 -176 -268l-36 -40h-88q-116 24 -156 24q-32 16 -32 24v8l60 108l64 132q32 59 32 84q10 1 24 52q8 0 20 60q8 0 20 60q8 0 20 64l24 32h156zM1213 1843h44l8 -8v-20
q-17 -17 -28 -64q-28 -49 -40 -88l-68 -128q-88 -169 -236 -360h-60q-44 0 -136 20q-80 7 -80 24v24q53 71 140 276q44 98 44 124q20 17 20 60q13 0 20 60q8 0 20 56l4 4h168q51 0 180 20z" />
    <glyph glyph-name="quoteleft" unicode="&#x2018;" horiz-adv-x="712" 
d="M389 1851q120 -8 208 -28q64 -9 64 -24v-12q-51 -76 -128 -244q-6 0 -12 -36q-14 -15 -28 -64q-48 -119 -76 -236q-15 -12 -28 -12h-148q-61 0 -208 -20h-4q-21 0 -24 12v4l72 168l20 36q0 11 20 40l88 160q111 177 184 256z" />
    <glyph glyph-name="quoteright" unicode="&#x2019;" horiz-adv-x="717" 
d="M616 1843h32l8 -8v-8l-28 -60l-36 -88q-8 -5 -20 -44q-11 0 -16 -36l-68 -116q-88 -152 -176 -268l-36 -40h-88q-116 24 -156 24q-32 16 -32 24v8l60 108l64 132q32 59 32 84q10 1 24 52q8 0 20 60q8 0 20 60q8 0 20 64l24 32h156z" />
    <glyph glyph-name="divide" unicode="&#xf7;" horiz-adv-x="1342" 
d="M700 1703h92q65 -11 120 -68q40 -61 40 -76v-72q-12 -53 -64 -108q-93 -100 -224 -100l-120 20l-52 36q-36 45 -36 72q-12 0 -12 44v12q0 97 116 180q30 29 100 52q0 7 40 8zM1228 1127q14 0 24 -80l8 -200l-16 -12h-20l-292 -40h-48l-180 -20h-48l-384 -20h-236l-16 16
v24l-20 240q15 12 32 12q316 0 388 16h8v-4l68 4h92q57 0 164 20v-4l4 4h72l244 28q37 12 156 16zM580 583h68l60 -20q108 -59 108 -168q0 -110 -128 -196q-33 -20 -112 -40l-40 -4l-72 4q0 8 -64 24q-84 52 -84 104q-12 0 -12 52v8q0 72 112 176l72 36q69 24 92 24z" />
    <glyph glyph-name="lozenge" unicode="&#x25ca;" horiz-adv-x="1012" 
 />
    <glyph glyph-name="ydieresis" unicode="&#xff;" horiz-adv-x="1024" 
 />
    <glyph glyph-name="Ydieresis" unicode="&#x178;" horiz-adv-x="1366" 
 />
    <glyph glyph-name="fraction" unicode="&#x2044;" horiz-adv-x="342" 
 />
    <glyph glyph-name="fraction" unicode="&#x2215;" horiz-adv-x="342" 
 />
    <glyph glyph-name="Euro" unicode="&#x20ac;" 
 />
    <glyph glyph-name="guilsinglleft" unicode="&#x2039;" horiz-adv-x="682" 
 />
    <glyph glyph-name="guilsinglright" unicode="&#x203a;" horiz-adv-x="682" 
 />
    <glyph glyph-name="uniF001" unicode="&#xf001;" horiz-adv-x="1024" 
 />
    <glyph glyph-name="uniF001" unicode="&#xfb01;" horiz-adv-x="1024" 
 />
    <glyph glyph-name="uniF002" unicode="&#xf002;" horiz-adv-x="1024" 
 />
    <glyph glyph-name="uniF002" unicode="&#xfb02;" horiz-adv-x="1024" 
 />
    <glyph glyph-name="daggerdbl" unicode="&#x2021;" 
 />
    <glyph glyph-name="periodcentered" unicode="&#xb7;" horiz-adv-x="569" 
 />
    <glyph glyph-name="periodcentered" unicode="&#x2219;" horiz-adv-x="569" 
 />
    <glyph glyph-name="quotesinglbase" unicode="&#x201a;" horiz-adv-x="455" 
 />
    <glyph glyph-name="quotedblbase" unicode="&#x201e;" horiz-adv-x="682" 
 />
    <glyph glyph-name="perthousand" unicode="&#x2030;" horiz-adv-x="2048" 
 />
    <glyph glyph-name="Acircumflex" unicode="&#xc2;" horiz-adv-x="1366" 
 />
    <glyph glyph-name="Ecircumflex" unicode="&#xca;" horiz-adv-x="1366" 
 />
    <glyph glyph-name="Aacute" unicode="&#xc1;" horiz-adv-x="1366" 
 />
    <glyph glyph-name="Edieresis" unicode="&#xcb;" horiz-adv-x="1366" 
 />
    <glyph glyph-name="Egrave" unicode="&#xc8;" horiz-adv-x="1366" 
 />
    <glyph glyph-name="Iacute" unicode="&#xcd;" horiz-adv-x="569" 
 />
    <glyph glyph-name="Icircumflex" unicode="&#xce;" horiz-adv-x="569" 
 />
    <glyph glyph-name="Idieresis" unicode="&#xcf;" horiz-adv-x="569" 
 />
    <glyph glyph-name="Igrave" unicode="&#xcc;" horiz-adv-x="569" 
 />
    <glyph glyph-name="Oacute" unicode="&#xd3;" horiz-adv-x="1593" 
 />
    <glyph glyph-name="Ocircumflex" unicode="&#xd4;" horiz-adv-x="1593" 
 />
    <glyph glyph-name="Ograve" unicode="&#xd2;" horiz-adv-x="1593" 
 />
    <glyph glyph-name="Uacute" unicode="&#xda;" horiz-adv-x="1479" 
 />
    <glyph glyph-name="Ucircumflex" unicode="&#xdb;" horiz-adv-x="1479" 
 />
    <glyph glyph-name="Ugrave" unicode="&#xd9;" horiz-adv-x="1479" 
 />
    <glyph glyph-name="dotlessi" unicode="&#x131;" horiz-adv-x="569" 
 />
    <glyph glyph-name="circumflex" unicode="&#x2c6;" horiz-adv-x="682" 
 />
    <glyph glyph-name="tilde" unicode="&#x2dc;" horiz-adv-x="682" 
 />
    <glyph glyph-name="uni02C9" unicode="&#x2c9;" horiz-adv-x="682" 
 />
    <glyph glyph-name="breve" unicode="&#x2d8;" horiz-adv-x="682" 
 />
    <glyph glyph-name="dotaccent" unicode="&#x2d9;" horiz-adv-x="682" 
 />
    <glyph glyph-name="ring" unicode="&#x2da;" horiz-adv-x="682" 
 />
    <glyph glyph-name="cedilla" unicode="&#xb8;" horiz-adv-x="682" 
 />
    <glyph glyph-name="hungarumlaut" unicode="&#x2dd;" horiz-adv-x="682" 
 />
    <glyph glyph-name="ogonek" unicode="&#x2db;" horiz-adv-x="682" 
 />
    <glyph glyph-name="caron" unicode="&#x2c7;" horiz-adv-x="682" 
 />
    <glyph glyph-name="Lslash" unicode="&#x141;" 
 />
    <glyph glyph-name="lslash" unicode="&#x142;" horiz-adv-x="455" 
 />
    <glyph glyph-name="Scaron" unicode="&#x160;" horiz-adv-x="1366" 
 />
    <glyph glyph-name="scaron" unicode="&#x161;" horiz-adv-x="1024" 
 />
    <glyph glyph-name="Zcaron" unicode="&#x17d;" horiz-adv-x="1251" 
 />
    <glyph glyph-name="zcaron" unicode="&#x17e;" horiz-adv-x="1024" 
 />
    <glyph glyph-name="brokenbar" unicode="&#xa6;" horiz-adv-x="532" 
 />
    <glyph glyph-name="Eth" unicode="&#xd0;" horiz-adv-x="1479" 
 />
    <glyph glyph-name="eth" unicode="&#xf0;" 
 />
    <glyph glyph-name="Yacute" unicode="&#xdd;" horiz-adv-x="1366" 
 />
    <glyph glyph-name="yacute" unicode="&#xfd;" horiz-adv-x="1024" 
 />
    <glyph glyph-name="Thorn" unicode="&#xde;" horiz-adv-x="1366" 
 />
    <glyph glyph-name="thorn" unicode="&#xfe;" 
 />
    <glyph glyph-name="minus" unicode="&#x2212;" horiz-adv-x="1196" 
 />
    <glyph glyph-name="multiply" unicode="&#xd7;" horiz-adv-x="1196" 
 />
    <glyph glyph-name="uni00B9" unicode="&#xb9;" horiz-adv-x="682" 
 />
    <glyph glyph-name="uni00B2" unicode="&#xb2;" horiz-adv-x="682" 
 />
    <glyph glyph-name="uni00B3" unicode="&#xb3;" horiz-adv-x="682" 
 />
    <glyph glyph-name="onehalf" unicode="&#xbd;" horiz-adv-x="1708" 
 />
    <glyph glyph-name="onequarter" unicode="&#xbc;" horiz-adv-x="1708" 
 />
    <glyph glyph-name="threequarters" unicode="&#xbe;" horiz-adv-x="1708" 
 />
    <glyph glyph-name="franc" unicode="&#x20a3;" 
 />
    <glyph glyph-name="Gbreve" unicode="&#x11e;" horiz-adv-x="1593" 
 />
    <glyph glyph-name="gbreve" unicode="&#x11f;" 
 />
    <glyph glyph-name="Idotaccent" unicode="&#x130;" horiz-adv-x="569" 
 />
    <glyph glyph-name="Scedilla" unicode="&#x15e;" horiz-adv-x="1366" 
 />
    <glyph glyph-name="scedilla" unicode="&#x15f;" horiz-adv-x="1024" 
 />
    <glyph glyph-name="Cacute" unicode="&#x106;" horiz-adv-x="1479" 
 />
    <glyph glyph-name="cacute" unicode="&#x107;" horiz-adv-x="1024" 
 />
    <glyph glyph-name="Ccaron" unicode="&#x10c;" horiz-adv-x="1479" 
 />
    <glyph glyph-name="ccaron" unicode="&#x10d;" horiz-adv-x="1024" 
 />
    <glyph glyph-name="dcroat" unicode="&#x111;" 
 />
    <glyph glyph-name="currency" unicode="&#xa4;" 
 />
    <glyph glyph-name="macron" unicode="&#xaf;" horiz-adv-x="1131" 
 />
    <glyph glyph-name="Amacron" unicode="&#x100;" horiz-adv-x="1366" 
 />
    <glyph glyph-name="amacron" unicode="&#x101;" 
 />
    <glyph glyph-name="Abreve" unicode="&#x102;" horiz-adv-x="1366" 
 />
    <glyph glyph-name="abreve" unicode="&#x103;" 
 />
    <glyph glyph-name="Aogonek" unicode="&#x104;" horiz-adv-x="1366" 
 />
    <glyph glyph-name="aogonek" unicode="&#x105;" 
 />
    <glyph glyph-name="Ccircumflex" unicode="&#x108;" horiz-adv-x="1479" 
 />
    <glyph glyph-name="ccircumflex" unicode="&#x109;" horiz-adv-x="1024" 
 />
    <glyph glyph-name="Cdotaccent" unicode="&#x10a;" horiz-adv-x="1479" 
 />
    <glyph glyph-name="cdotaccent" unicode="&#x10b;" horiz-adv-x="1024" 
 />
    <glyph glyph-name="Dcaron" unicode="&#x10e;" horiz-adv-x="1479" 
 />
    <glyph glyph-name="dcaron" unicode="&#x10f;" horiz-adv-x="1259" 
 />
    <glyph glyph-name="Dcroat" unicode="&#x110;" horiz-adv-x="1479" 
 />
    <glyph glyph-name="Emacron" unicode="&#x112;" horiz-adv-x="1366" 
 />
    <glyph glyph-name="emacron" unicode="&#x113;" 
 />
    <glyph glyph-name="Ebreve" unicode="&#x114;" horiz-adv-x="1366" 
 />
    <glyph glyph-name="ebreve" unicode="&#x115;" 
 />
    <glyph glyph-name="Edotaccent" unicode="&#x116;" horiz-adv-x="1366" 
 />
    <glyph glyph-name="edotaccent" unicode="&#x117;" 
 />
    <glyph glyph-name="Eogonek" unicode="&#x118;" horiz-adv-x="1366" 
 />
    <glyph glyph-name="eogonek" unicode="&#x119;" 
 />
    <glyph glyph-name="Ecaron" unicode="&#x11a;" horiz-adv-x="1366" 
 />
    <glyph glyph-name="ecaron" unicode="&#x11b;" 
 />
    <glyph glyph-name="Gcircumflex" unicode="&#x11c;" horiz-adv-x="1593" 
 />
    <glyph glyph-name="gcircumflex" unicode="&#x11d;" 
 />
    <glyph glyph-name="Gdotaccent" unicode="&#x120;" horiz-adv-x="1593" 
 />
    <glyph glyph-name="gdotaccent" unicode="&#x121;" 
 />
    <glyph glyph-name="Gcommaaccent" unicode="&#x122;" horiz-adv-x="1593" 
 />
    <glyph glyph-name="gcommaaccent" unicode="&#x123;" 
 />
    <glyph glyph-name="Hcircumflex" unicode="&#x124;" horiz-adv-x="1479" 
 />
    <glyph glyph-name="hcircumflex" unicode="&#x125;" 
 />
    <glyph glyph-name="Hbar" unicode="&#x126;" horiz-adv-x="1479" 
 />
    <glyph glyph-name="hbar" unicode="&#x127;" 
 />
    <glyph glyph-name="Itilde" unicode="&#x128;" horiz-adv-x="569" 
 />
    <glyph glyph-name="itilde" unicode="&#x129;" horiz-adv-x="569" 
 />
    <glyph glyph-name="Imacron" unicode="&#x12a;" horiz-adv-x="569" 
 />
    <glyph glyph-name="imacron" unicode="&#x12b;" horiz-adv-x="569" 
 />
    <glyph glyph-name="Ibreve" unicode="&#x12c;" horiz-adv-x="569" 
 />
    <glyph glyph-name="ibreve" unicode="&#x12d;" horiz-adv-x="569" 
 />
    <glyph glyph-name="Iogonek" unicode="&#x12e;" horiz-adv-x="569" 
 />
    <glyph glyph-name="iogonek" unicode="&#x12f;" horiz-adv-x="455" 
 />
    <glyph glyph-name="IJ" unicode="&#x132;" horiz-adv-x="1505" 
 />
    <glyph glyph-name="ij" unicode="&#x133;" horiz-adv-x="909" 
 />
    <glyph glyph-name="Jcircumflex" unicode="&#x134;" horiz-adv-x="1024" 
 />
    <glyph glyph-name="jcircumflex" unicode="&#x135;" horiz-adv-x="455" 
 />
    <glyph glyph-name="Kcommaaccent" unicode="&#x136;" horiz-adv-x="1366" 
 />
    <glyph glyph-name="kcommaaccent" unicode="&#x137;" horiz-adv-x="1024" 
 />
    <glyph glyph-name="kgreenlandic" unicode="&#x138;" horiz-adv-x="1024" 
 />
    <glyph glyph-name="Lacute" unicode="&#x139;" 
 />
    <glyph glyph-name="lacute" unicode="&#x13a;" horiz-adv-x="455" 
 />
    <glyph glyph-name="Lcommaaccent" unicode="&#x13b;" 
 />
    <glyph glyph-name="lcommaaccent" unicode="&#x13c;" horiz-adv-x="455" 
 />
    <glyph glyph-name="Lcaron" unicode="&#x13d;" 
 />
    <glyph glyph-name="lcaron" unicode="&#x13e;" horiz-adv-x="597" 
 />
    <glyph glyph-name="Ldot" unicode="&#x13f;" 
 />
    <glyph glyph-name="ldot" unicode="&#x140;" horiz-adv-x="684" 
 />
    <glyph glyph-name="Nacute" unicode="&#x143;" horiz-adv-x="1479" 
 />
    <glyph glyph-name="nacute" unicode="&#x144;" 
 />
    <glyph glyph-name="Ncommaaccent" unicode="&#x145;" horiz-adv-x="1479" 
 />
    <glyph glyph-name="ncommaaccent" unicode="&#x146;" 
 />
    <glyph glyph-name="Ncaron" unicode="&#x147;" horiz-adv-x="1479" 
 />
    <glyph glyph-name="ncaron" unicode="&#x148;" 
 />
    <glyph glyph-name="napostrophe" unicode="&#x149;" horiz-adv-x="1237" 
 />
    <glyph glyph-name="Eng" unicode="&#x14a;" horiz-adv-x="1481" 
 />
    <glyph glyph-name="eng" unicode="&#x14b;" 
 />
    <glyph glyph-name="Omacron" unicode="&#x14c;" horiz-adv-x="1593" 
 />
    <glyph glyph-name="omacron" unicode="&#x14d;" 
 />
    <glyph glyph-name="Obreve" unicode="&#x14e;" horiz-adv-x="1593" 
 />
    <glyph glyph-name="obreve" unicode="&#x14f;" 
 />
    <glyph glyph-name="Ohungarumlaut" unicode="&#x150;" horiz-adv-x="1593" 
 />
    <glyph glyph-name="ohungarumlaut" unicode="&#x151;" 
 />
    <glyph glyph-name="Racute" unicode="&#x154;" horiz-adv-x="1479" 
 />
    <glyph glyph-name="racute" unicode="&#x155;" horiz-adv-x="682" 
 />
    <glyph glyph-name="Rcommaaccent" unicode="&#x156;" horiz-adv-x="1479" 
 />
    <glyph glyph-name="rcommaaccent" unicode="&#x157;" horiz-adv-x="682" 
 />
    <glyph glyph-name="Rcaron" unicode="&#x158;" horiz-adv-x="1479" 
 />
    <glyph glyph-name="rcaron" unicode="&#x159;" horiz-adv-x="682" 
 />
    <glyph glyph-name="Sacute" unicode="&#x15a;" horiz-adv-x="1366" 
 />
    <glyph glyph-name="sacute" unicode="&#x15b;" horiz-adv-x="1024" 
 />
    <glyph glyph-name="Scircumflex" unicode="&#x15c;" horiz-adv-x="1366" 
 />
    <glyph glyph-name="scircumflex" unicode="&#x15d;" horiz-adv-x="1024" 
 />
    <glyph glyph-name="Tcommaaccent" unicode="&#x162;" horiz-adv-x="1251" 
 />
    <glyph glyph-name="tcommaaccent" unicode="&#x163;" horiz-adv-x="569" 
 />
    <glyph glyph-name="Tcaron" unicode="&#x164;" horiz-adv-x="1251" 
 />
    <glyph glyph-name="tcaron" unicode="&#x165;" horiz-adv-x="768" 
 />
    <glyph glyph-name="Tbar" unicode="&#x166;" horiz-adv-x="1251" 
 />
    <glyph glyph-name="tbar" unicode="&#x167;" horiz-adv-x="569" 
 />
    <glyph glyph-name="Utilde" unicode="&#x168;" horiz-adv-x="1479" 
 />
    <glyph glyph-name="utilde" unicode="&#x169;" 
 />
    <glyph glyph-name="Umacron" unicode="&#x16a;" horiz-adv-x="1479" 
 />
    <glyph glyph-name="umacron" unicode="&#x16b;" 
 />
    <glyph glyph-name="Ubreve" unicode="&#x16c;" horiz-adv-x="1479" 
 />
    <glyph glyph-name="ubreve" unicode="&#x16d;" 
 />
    <glyph glyph-name="Uring" unicode="&#x16e;" horiz-adv-x="1479" 
 />
    <glyph glyph-name="uring" unicode="&#x16f;" 
 />
    <glyph glyph-name="Uhungarumlaut" unicode="&#x170;" horiz-adv-x="1479" 
 />
    <glyph glyph-name="uhungarumlaut" unicode="&#x171;" 
 />
    <glyph glyph-name="Uogonek" unicode="&#x172;" horiz-adv-x="1479" 
 />
    <glyph glyph-name="uogonek" unicode="&#x173;" 
 />
    <glyph glyph-name="Wcircumflex" unicode="&#x174;" horiz-adv-x="1933" 
 />
    <glyph glyph-name="wcircumflex" unicode="&#x175;" horiz-adv-x="1479" 
 />
    <glyph glyph-name="Ycircumflex" unicode="&#x176;" horiz-adv-x="1366" 
 />
    <glyph glyph-name="ycircumflex" unicode="&#x177;" horiz-adv-x="1024" 
 />
    <glyph glyph-name="Zacute" unicode="&#x179;" horiz-adv-x="1251" 
 />
    <glyph glyph-name="zacute" unicode="&#x17a;" horiz-adv-x="1024" 
 />
    <glyph glyph-name="Zdotaccent" unicode="&#x17b;" horiz-adv-x="1251" 
 />
    <glyph glyph-name="zdotaccent" unicode="&#x17c;" horiz-adv-x="1024" 
 />
    <glyph glyph-name="longs" unicode="&#x17f;" horiz-adv-x="455" 
 />
    <glyph glyph-name="Aringacute" unicode="&#x1fa;" horiz-adv-x="1366" 
 />
    <glyph glyph-name="aringacute" unicode="&#x1fb;" 
 />
    <glyph glyph-name="AEacute" unicode="&#x1fc;" horiz-adv-x="2048" 
 />
    <glyph glyph-name="aeacute" unicode="&#x1fd;" horiz-adv-x="1821" 
 />
    <glyph glyph-name="Oslashacute" unicode="&#x1fe;" horiz-adv-x="1593" 
 />
    <glyph glyph-name="oslashacute" unicode="&#x1ff;" horiz-adv-x="1251" 
 />
    <glyph glyph-name="tonos" unicode="&#x384;" horiz-adv-x="682" 
 />
    <glyph glyph-name="dieresistonos" unicode="&#x385;" horiz-adv-x="682" 
 />
    <glyph glyph-name="Alphatonos" unicode="&#x386;" horiz-adv-x="1367" 
 />
    <glyph glyph-name="anoteleia" unicode="&#x387;" horiz-adv-x="569" 
 />
    <glyph glyph-name="Epsilontonos" unicode="&#x388;" horiz-adv-x="1606" 
 />
    <glyph glyph-name="Etatonos" unicode="&#x389;" horiz-adv-x="1716" 
 />
    <glyph glyph-name="Iotatonos" unicode="&#x38a;" horiz-adv-x="786" 
 />
    <glyph glyph-name="Omicrontonos" unicode="&#x38c;" horiz-adv-x="1586" 
 />
    <glyph glyph-name="Upsilontonos" unicode="&#x38e;" horiz-adv-x="1752" 
 />
    <glyph glyph-name="Omegatonos" unicode="&#x38f;" horiz-adv-x="1541" 
 />
    <glyph glyph-name="iotadieresistonos" unicode="&#x390;" horiz-adv-x="455" 
 />
    <glyph glyph-name="Alpha" unicode="&#x391;" horiz-adv-x="1366" 
 />
    <glyph glyph-name="Beta" unicode="&#x392;" horiz-adv-x="1366" 
 />
    <glyph glyph-name="Gamma" unicode="&#x393;" horiz-adv-x="1128" 
 />
    <glyph glyph-name="uni0394" unicode="&#x394;" horiz-adv-x="1368" 
 />
    <glyph glyph-name="Epsilon" unicode="&#x395;" horiz-adv-x="1366" 
 />
    <glyph glyph-name="Zeta" unicode="&#x396;" horiz-adv-x="1251" 
 />
    <glyph glyph-name="Eta" unicode="&#x397;" horiz-adv-x="1479" 
 />
    <glyph glyph-name="Theta" unicode="&#x398;" horiz-adv-x="1593" 
 />
    <glyph glyph-name="Iota" unicode="&#x399;" horiz-adv-x="569" 
 />
    <glyph glyph-name="Kappa" unicode="&#x39a;" horiz-adv-x="1366" 
 />
    <glyph glyph-name="Lambda" unicode="&#x39b;" horiz-adv-x="1368" 
 />
    <glyph glyph-name="Mu" unicode="&#x39c;" horiz-adv-x="1706" 
 />
    <glyph glyph-name="Nu" unicode="&#x39d;" horiz-adv-x="1479" 
 />
    <glyph glyph-name="Xi" unicode="&#x39e;" horiz-adv-x="1331" 
 />
    <glyph glyph-name="Omicron" unicode="&#x39f;" horiz-adv-x="1593" 
 />
    <glyph glyph-name="Pi" unicode="&#x3a0;" horiz-adv-x="1479" 
 />
    <glyph glyph-name="Rho" unicode="&#x3a1;" horiz-adv-x="1366" 
 />
    <glyph glyph-name="Sigma" unicode="&#x3a3;" horiz-adv-x="1266" 
 />
    <glyph glyph-name="Tau" unicode="&#x3a4;" horiz-adv-x="1251" 
 />
    <glyph glyph-name="Upsilon" unicode="&#x3a5;" horiz-adv-x="1366" 
 />
    <glyph glyph-name="Phi" unicode="&#x3a6;" horiz-adv-x="1634" 
 />
    <glyph glyph-name="Chi" unicode="&#x3a7;" horiz-adv-x="1366" 
 />
    <glyph glyph-name="Psi" unicode="&#x3a8;" horiz-adv-x="1711" 
 />
    <glyph glyph-name="uni03A9" unicode="&#x3a9;" horiz-adv-x="1531" 
 />
    <glyph glyph-name="Iotadieresis" unicode="&#x3aa;" horiz-adv-x="569" 
 />
    <glyph glyph-name="Upsilondieresis" unicode="&#x3ab;" horiz-adv-x="1366" 
 />
    <glyph glyph-name="alphatonos" unicode="&#x3ac;" horiz-adv-x="1184" 
 />
    <glyph glyph-name="epsilontonos" unicode="&#x3ad;" horiz-adv-x="913" 
 />
    <glyph glyph-name="etatonos" unicode="&#x3ae;" 
 />
    <glyph glyph-name="iotatonos" unicode="&#x3af;" horiz-adv-x="455" 
 />
    <glyph glyph-name="upsilondieresistonos" unicode="&#x3b0;" horiz-adv-x="1120" 
 />
    <glyph glyph-name="alpha" unicode="&#x3b1;" horiz-adv-x="1184" 
 />
    <glyph glyph-name="beta" unicode="&#x3b2;" horiz-adv-x="1178" 
 />
    <glyph glyph-name="gamma" unicode="&#x3b3;" horiz-adv-x="1024" 
 />
    <glyph glyph-name="delta" unicode="&#x3b4;" horiz-adv-x="1140" 
 />
    <glyph glyph-name="epsilon" unicode="&#x3b5;" horiz-adv-x="913" 
 />
    <glyph glyph-name="zeta" unicode="&#x3b6;" horiz-adv-x="903" 
 />
    <glyph glyph-name="eta" unicode="&#x3b7;" 
 />
    <glyph glyph-name="theta" unicode="&#x3b8;" 
 />
    <glyph glyph-name="iota" unicode="&#x3b9;" horiz-adv-x="455" 
 />
    <glyph glyph-name="kappa" unicode="&#x3ba;" horiz-adv-x="1024" 
 />
    <glyph glyph-name="lambda" unicode="&#x3bb;" horiz-adv-x="1024" 
 />
    <glyph glyph-name="uni03BC" unicode="&#x3bc;" horiz-adv-x="1180" 
 />
    <glyph glyph-name="nu" unicode="&#x3bd;" horiz-adv-x="1024" 
 />
    <glyph glyph-name="xi" unicode="&#x3be;" horiz-adv-x="917" 
 />
    <glyph glyph-name="omicron" unicode="&#x3bf;" 
 />
    <glyph glyph-name="pi" unicode="&#x3c0;" horiz-adv-x="1413" 
 />
    <glyph glyph-name="rho" unicode="&#x3c1;" horiz-adv-x="1165" 
 />
    <glyph glyph-name="sigma1" unicode="&#x3c2;" horiz-adv-x="987" 
 />
    <glyph glyph-name="sigma" unicode="&#x3c3;" horiz-adv-x="1264" 
 />
    <glyph glyph-name="tau" unicode="&#x3c4;" horiz-adv-x="809" 
 />
    <glyph glyph-name="upsilon" unicode="&#x3c5;" horiz-adv-x="1120" 
 />
    <glyph glyph-name="phi" unicode="&#x3c6;" horiz-adv-x="1328" 
 />
    <glyph glyph-name="chi" unicode="&#x3c7;" horiz-adv-x="1075" 
 />
    <glyph glyph-name="psi" unicode="&#x3c8;" horiz-adv-x="1460" 
 />
    <glyph glyph-name="omega" unicode="&#x3c9;" horiz-adv-x="1599" 
 />
    <glyph glyph-name="iotadieresis" unicode="&#x3ca;" horiz-adv-x="455" 
 />
    <glyph glyph-name="upsilondieresis" unicode="&#x3cb;" horiz-adv-x="1120" 
 />
    <glyph glyph-name="omicrontonos" unicode="&#x3cc;" 
 />
    <glyph glyph-name="upsilontonos" unicode="&#x3cd;" horiz-adv-x="1120" 
 />
    <glyph glyph-name="omegatonos" unicode="&#x3ce;" horiz-adv-x="1599" 
 />
    <glyph glyph-name="afii10023" unicode="&#x401;" horiz-adv-x="1367" 
 />
    <glyph glyph-name="afii10051" unicode="&#x402;" horiz-adv-x="1771" 
 />
    <glyph glyph-name="afii10052" unicode="&#x403;" horiz-adv-x="1109" 
 />
    <glyph glyph-name="afii10053" unicode="&#x404;" horiz-adv-x="1472" 
 />
    <glyph glyph-name="afii10054" unicode="&#x405;" horiz-adv-x="1366" 
 />
    <glyph glyph-name="afii10055" unicode="&#x406;" horiz-adv-x="569" 
 />
    <glyph glyph-name="afii10056" unicode="&#x407;" horiz-adv-x="569" 
 />
    <glyph glyph-name="afii10057" unicode="&#x408;" horiz-adv-x="1024" 
 />
    <glyph glyph-name="afii10058" unicode="&#x409;" horiz-adv-x="2165" 
 />
    <glyph glyph-name="afii10059" unicode="&#x40a;" horiz-adv-x="2069" 
 />
    <glyph glyph-name="afii10060" unicode="&#x40b;" horiz-adv-x="1749" 
 />
    <glyph glyph-name="afii10061" unicode="&#x40c;" horiz-adv-x="1193" 
 />
    <glyph glyph-name="afii10062" unicode="&#x40e;" horiz-adv-x="1301" 
 />
    <glyph glyph-name="afii10145" unicode="&#x40f;" horiz-adv-x="1472" 
 />
    <glyph glyph-name="afii10017" unicode="&#x410;" horiz-adv-x="1366" 
 />
    <glyph glyph-name="afii10018" unicode="&#x411;" horiz-adv-x="1344" 
 />
    <glyph glyph-name="afii10019" unicode="&#x412;" horiz-adv-x="1366" 
 />
    <glyph glyph-name="afii10020" unicode="&#x413;" horiz-adv-x="1109" 
 />
    <glyph glyph-name="afii10021" unicode="&#x414;" horiz-adv-x="1387" 
 />
    <glyph glyph-name="afii10022" unicode="&#x415;" horiz-adv-x="1366" 
 />
    <glyph glyph-name="afii10024" unicode="&#x416;" horiz-adv-x="1891" 
 />
    <glyph glyph-name="afii10025" unicode="&#x417;" horiz-adv-x="1237" 
 />
    <glyph glyph-name="afii10026" unicode="&#x418;" horiz-adv-x="1472" 
 />
    <glyph glyph-name="afii10027" unicode="&#x419;" horiz-adv-x="1472" 
 />
    <glyph glyph-name="afii10028" unicode="&#x41a;" horiz-adv-x="1193" 
 />
    <glyph glyph-name="afii10029" unicode="&#x41b;" horiz-adv-x="1344" 
 />
    <glyph glyph-name="afii10030" unicode="&#x41c;" horiz-adv-x="1706" 
 />
    <glyph glyph-name="afii10031" unicode="&#x41d;" horiz-adv-x="1479" 
 />
    <glyph glyph-name="afii10032" unicode="&#x41e;" horiz-adv-x="1593" 
 />
    <glyph glyph-name="afii10033" unicode="&#x41f;" horiz-adv-x="1472" 
 />
    <glyph glyph-name="afii10034" unicode="&#x420;" horiz-adv-x="1366" 
 />
    <glyph glyph-name="afii10035" unicode="&#x421;" horiz-adv-x="1479" 
 />
    <glyph glyph-name="afii10036" unicode="&#x422;" horiz-adv-x="1251" 
 />
    <glyph glyph-name="afii10037" unicode="&#x423;" horiz-adv-x="1301" 
 />
    <glyph glyph-name="afii10038" unicode="&#x424;" horiz-adv-x="1557" 
 />
    <glyph glyph-name="afii10039" unicode="&#x425;" horiz-adv-x="1366" 
 />
    <glyph glyph-name="afii10040" unicode="&#x426;" horiz-adv-x="1515" 
 />
    <glyph glyph-name="afii10041" unicode="&#x427;" horiz-adv-x="1365" 
 />
    <glyph glyph-name="afii10042" unicode="&#x428;" horiz-adv-x="1877" 
 />
    <glyph glyph-name="afii10043" unicode="&#x429;" horiz-adv-x="1920" 
 />
    <glyph glyph-name="afii10044" unicode="&#x42a;" horiz-adv-x="1621" 
 />
    <glyph glyph-name="afii10045" unicode="&#x42b;" horiz-adv-x="1813" 
 />
    <glyph glyph-name="afii10046" unicode="&#x42c;" horiz-adv-x="1344" 
 />
    <glyph glyph-name="afii10047" unicode="&#x42d;" horiz-adv-x="1472" 
 />
    <glyph glyph-name="afii10048" unicode="&#x42e;" horiz-adv-x="2069" 
 />
    <glyph glyph-name="afii10049" unicode="&#x42f;" horiz-adv-x="1479" 
 />
    <glyph glyph-name="afii10065" unicode="&#x430;" 
 />
    <glyph glyph-name="afii10066" unicode="&#x431;" horiz-adv-x="1173" 
 />
    <glyph glyph-name="afii10067" unicode="&#x432;" horiz-adv-x="1088" 
 />
    <glyph glyph-name="afii10068" unicode="&#x433;" horiz-adv-x="747" 
 />
    <glyph glyph-name="afii10069" unicode="&#x434;" horiz-adv-x="1195" 
 />
    <glyph glyph-name="afii10070" unicode="&#x435;" 
 />
    <glyph glyph-name="afii10072" unicode="&#x436;" horiz-adv-x="1370" 
 />
    <glyph glyph-name="afii10073" unicode="&#x437;" horiz-adv-x="939" 
 />
    <glyph glyph-name="afii10074" unicode="&#x438;" horiz-adv-x="1144" 
 />
    <glyph glyph-name="afii10075" unicode="&#x439;" horiz-adv-x="1144" 
 />
    <glyph glyph-name="afii10076" unicode="&#x43a;" horiz-adv-x="896" 
 />
    <glyph glyph-name="afii10077" unicode="&#x43b;" horiz-adv-x="1195" 
 />
    <glyph glyph-name="afii10078" unicode="&#x43c;" horiz-adv-x="1408" 
 />
    <glyph glyph-name="afii10079" unicode="&#x43d;" horiz-adv-x="1131" 
 />
    <glyph glyph-name="afii10080" unicode="&#x43e;" 
 />
    <glyph glyph-name="afii10081" unicode="&#x43f;" horiz-adv-x="1109" 
 />
    <glyph glyph-name="afii10082" unicode="&#x440;" 
 />
    <glyph glyph-name="afii10083" unicode="&#x441;" horiz-adv-x="1024" 
 />
    <glyph glyph-name="afii10084" unicode="&#x442;" horiz-adv-x="938" 
 />
    <glyph glyph-name="afii10085" unicode="&#x443;" horiz-adv-x="1024" 
 />
    <glyph glyph-name="afii10086" unicode="&#x444;" horiz-adv-x="1685" 
 />
    <glyph glyph-name="afii10087" unicode="&#x445;" horiz-adv-x="1024" 
 />
    <glyph glyph-name="afii10088" unicode="&#x446;" horiz-adv-x="1173" 
 />
    <glyph glyph-name="afii10089" unicode="&#x447;" horiz-adv-x="1067" 
 />
    <glyph glyph-name="afii10090" unicode="&#x448;" horiz-adv-x="1643" 
 />
    <glyph glyph-name="afii10091" unicode="&#x449;" horiz-adv-x="1685" 
 />
    <glyph glyph-name="afii10092" unicode="&#x44a;" horiz-adv-x="1280" 
 />
    <glyph glyph-name="afii10093" unicode="&#x44b;" horiz-adv-x="1472" 
 />
    <glyph glyph-name="afii10094" unicode="&#x44c;" horiz-adv-x="1067" 
 />
    <glyph glyph-name="afii10095" unicode="&#x44d;" horiz-adv-x="1045" 
 />
    <glyph glyph-name="afii10096" unicode="&#x44e;" horiz-adv-x="1536" 
 />
    <glyph glyph-name="afii10097" unicode="&#x44f;" horiz-adv-x="1109" 
 />
    <glyph glyph-name="afii10071" unicode="&#x451;" 
 />
    <glyph glyph-name="afii10099" unicode="&#x452;" 
 />
    <glyph glyph-name="afii10100" unicode="&#x453;" horiz-adv-x="747" 
 />
    <glyph glyph-name="afii10101" unicode="&#x454;" horiz-adv-x="1045" 
 />
    <glyph glyph-name="afii10102" unicode="&#x455;" horiz-adv-x="1024" 
 />
    <glyph glyph-name="afii10103" unicode="&#x456;" horiz-adv-x="455" 
 />
    <glyph glyph-name="afii10104" unicode="&#x457;" horiz-adv-x="569" 
 />
    <glyph glyph-name="afii10105" unicode="&#x458;" horiz-adv-x="455" 
 />
    <glyph glyph-name="afii10106" unicode="&#x459;" horiz-adv-x="1856" 
 />
    <glyph glyph-name="afii10107" unicode="&#x45a;" horiz-adv-x="1664" 
 />
    <glyph glyph-name="afii10108" unicode="&#x45b;" 
 />
    <glyph glyph-name="afii10109" unicode="&#x45c;" horiz-adv-x="896" 
 />
    <glyph glyph-name="afii10110" unicode="&#x45e;" horiz-adv-x="1024" 
 />
    <glyph glyph-name="afii10193" unicode="&#x45f;" horiz-adv-x="1131" 
 />
    <glyph glyph-name="afii10050" unicode="&#x490;" horiz-adv-x="1001" 
 />
    <glyph glyph-name="afii10098" unicode="&#x491;" horiz-adv-x="842" 
 />
    <glyph glyph-name="Wgrave" unicode="&#x1e80;" horiz-adv-x="1933" 
 />
    <glyph glyph-name="wgrave" unicode="&#x1e81;" horiz-adv-x="1479" 
 />
    <glyph glyph-name="Wacute" unicode="&#x1e82;" horiz-adv-x="1933" 
 />
    <glyph glyph-name="wacute" unicode="&#x1e83;" horiz-adv-x="1479" 
 />
    <glyph glyph-name="Wdieresis" unicode="&#x1e84;" horiz-adv-x="1933" 
 />
    <glyph glyph-name="wdieresis" unicode="&#x1e85;" horiz-adv-x="1479" 
 />
    <glyph glyph-name="Ygrave" unicode="&#x1ef2;" horiz-adv-x="1366" 
 />
    <glyph glyph-name="ygrave" unicode="&#x1ef3;" horiz-adv-x="1024" 
 />
    <glyph glyph-name="afii00208" unicode="&#x2015;" horiz-adv-x="2048" 
 />
    <glyph glyph-name="underscoredbl" unicode="&#x2017;" horiz-adv-x="1131" 
 />
    <glyph glyph-name="quotereversed" unicode="&#x201b;" horiz-adv-x="455" 
 />
    <glyph glyph-name="minute" unicode="&#x2032;" horiz-adv-x="384" 
 />
    <glyph glyph-name="second" unicode="&#x2033;" horiz-adv-x="725" 
 />
    <glyph glyph-name="exclamdbl" unicode="&#x203c;" horiz-adv-x="1024" 
 />
    <glyph glyph-name="uni203E" unicode="&#x203e;" horiz-adv-x="682" 
 />
    <glyph glyph-name="uni207F" unicode="&#x207f;" horiz-adv-x="747" 
 />
    <glyph glyph-name="lira" unicode="&#x20a4;" 
 />
    <glyph glyph-name="peseta" unicode="&#x20a7;" horiz-adv-x="2240" 
 />
    <glyph glyph-name="afii61248" unicode="&#x2105;" horiz-adv-x="1813" 
 />
    <glyph glyph-name="afii61289" unicode="&#x2113;" horiz-adv-x="662" 
 />
    <glyph glyph-name="afii61352" unicode="&#x2116;" horiz-adv-x="2197" 
 />
    <glyph glyph-name="estimated" unicode="&#x212e;" horiz-adv-x="1229" 
 />
    <glyph glyph-name="oneeighth" unicode="&#x215b;" horiz-adv-x="1708" 
 />
    <glyph glyph-name="threeeighths" unicode="&#x215c;" horiz-adv-x="1708" 
 />
    <glyph glyph-name="fiveeighths" unicode="&#x215d;" horiz-adv-x="1708" 
 />
    <glyph glyph-name="seveneighths" unicode="&#x215e;" horiz-adv-x="1708" 
 />
    <glyph glyph-name="arrowleft" unicode="&#x2190;" horiz-adv-x="2048" 
 />
    <glyph glyph-name="arrowup" unicode="&#x2191;" horiz-adv-x="1024" 
 />
    <glyph glyph-name="arrowright" unicode="&#x2192;" horiz-adv-x="2048" 
 />
    <glyph glyph-name="arrowdown" unicode="&#x2193;" horiz-adv-x="1024" 
 />
    <glyph glyph-name="arrowboth" unicode="&#x2194;" horiz-adv-x="2048" 
 />
    <glyph glyph-name="arrowupdn" unicode="&#x2195;" horiz-adv-x="1024" 
 />
    <glyph glyph-name="arrowupdnbse" unicode="&#x21a8;" horiz-adv-x="1024" 
 />
    <glyph glyph-name="orthogonal" unicode="&#x221f;" horiz-adv-x="2005" 
 />
    <glyph glyph-name="intersection" unicode="&#x2229;" horiz-adv-x="1472" 
 />
    <glyph glyph-name="equivalence" unicode="&#x2261;" horiz-adv-x="1195" 
 />
    <glyph glyph-name="house" unicode="&#x2302;" horiz-adv-x="1237" 
 />
    <glyph glyph-name="revlogicalnot" unicode="&#x2310;" horiz-adv-x="1196" 
 />
    <glyph glyph-name="integraltp" unicode="&#x2320;" horiz-adv-x="1237" 
 />
    <glyph glyph-name="integralbt" unicode="&#x2321;" horiz-adv-x="1237" 
 />
    <glyph glyph-name="SF100000" unicode="&#x2500;" horiz-adv-x="1451" 
 />
    <glyph glyph-name="SF110000" unicode="&#x2502;" horiz-adv-x="1280" 
 />
    <glyph glyph-name="SF010000" unicode="&#x250c;" horiz-adv-x="1451" 
 />
    <glyph glyph-name="SF030000" unicode="&#x2510;" horiz-adv-x="1451" 
 />
    <glyph glyph-name="SF020000" unicode="&#x2514;" horiz-adv-x="1451" 
 />
    <glyph glyph-name="SF040000" unicode="&#x2518;" horiz-adv-x="1451" 
 />
    <glyph glyph-name="SF080000" unicode="&#x251c;" horiz-adv-x="1451" 
 />
    <glyph glyph-name="SF090000" unicode="&#x2524;" horiz-adv-x="1451" 
 />
    <glyph glyph-name="SF060000" unicode="&#x252c;" horiz-adv-x="1451" 
 />
    <glyph glyph-name="SF070000" unicode="&#x2534;" horiz-adv-x="1451" 
 />
    <glyph glyph-name="SF050000" unicode="&#x253c;" horiz-adv-x="1451" 
 />
    <glyph glyph-name="SF430000" unicode="&#x2550;" horiz-adv-x="1451" 
 />
    <glyph glyph-name="SF240000" unicode="&#x2551;" horiz-adv-x="1451" 
 />
    <glyph glyph-name="SF510000" unicode="&#x2552;" horiz-adv-x="1451" 
 />
    <glyph glyph-name="SF520000" unicode="&#x2553;" horiz-adv-x="1451" 
 />
    <glyph glyph-name="SF390000" unicode="&#x2554;" horiz-adv-x="1451" 
 />
    <glyph glyph-name="SF220000" unicode="&#x2555;" horiz-adv-x="1451" 
 />
    <glyph glyph-name="SF210000" unicode="&#x2556;" horiz-adv-x="1451" 
 />
    <glyph glyph-name="SF250000" unicode="&#x2557;" horiz-adv-x="1451" 
 />
    <glyph glyph-name="SF500000" unicode="&#x2558;" horiz-adv-x="1451" 
 />
    <glyph glyph-name="SF490000" unicode="&#x2559;" horiz-adv-x="1451" 
 />
    <glyph glyph-name="SF380000" unicode="&#x255a;" horiz-adv-x="1451" 
 />
    <glyph glyph-name="SF280000" unicode="&#x255b;" horiz-adv-x="1451" 
 />
    <glyph glyph-name="SF270000" unicode="&#x255c;" horiz-adv-x="1451" 
 />
    <glyph glyph-name="SF260000" unicode="&#x255d;" horiz-adv-x="1451" 
 />
    <glyph glyph-name="SF360000" unicode="&#x255e;" horiz-adv-x="1451" 
 />
    <glyph glyph-name="SF370000" unicode="&#x255f;" horiz-adv-x="1451" 
 />
    <glyph glyph-name="SF420000" unicode="&#x2560;" horiz-adv-x="1451" 
 />
    <glyph glyph-name="SF190000" unicode="&#x2561;" horiz-adv-x="1451" 
 />
    <glyph glyph-name="SF200000" unicode="&#x2562;" horiz-adv-x="1451" 
 />
    <glyph glyph-name="SF230000" unicode="&#x2563;" horiz-adv-x="1451" 
 />
    <glyph glyph-name="SF470000" unicode="&#x2564;" horiz-adv-x="1451" 
 />
    <glyph glyph-name="SF480000" unicode="&#x2565;" horiz-adv-x="1451" 
 />
    <glyph glyph-name="SF410000" unicode="&#x2566;" horiz-adv-x="1451" 
 />
    <glyph glyph-name="SF450000" unicode="&#x2567;" horiz-adv-x="1451" 
 />
    <glyph glyph-name="SF460000" unicode="&#x2568;" horiz-adv-x="1451" 
 />
    <glyph glyph-name="SF400000" unicode="&#x2569;" horiz-adv-x="1451" 
 />
    <glyph glyph-name="SF540000" unicode="&#x256a;" horiz-adv-x="1451" 
 />
    <glyph glyph-name="SF530000" unicode="&#x256b;" horiz-adv-x="1451" 
 />
    <glyph glyph-name="SF440000" unicode="&#x256c;" horiz-adv-x="1451" 
 />
    <glyph glyph-name="upblock" unicode="&#x2580;" horiz-adv-x="1451" 
 />
    <glyph glyph-name="dnblock" unicode="&#x2584;" horiz-adv-x="1451" 
 />
    <glyph glyph-name="block" unicode="&#x2588;" horiz-adv-x="1451" 
 />
    <glyph glyph-name="lfblock" unicode="&#x258c;" horiz-adv-x="1451" 
 />
    <glyph glyph-name="rtblock" unicode="&#x2590;" horiz-adv-x="1451" 
 />
    <glyph glyph-name="ltshade" unicode="&#x2591;" horiz-adv-x="1451" 
 />
    <glyph glyph-name="shade" unicode="&#x2592;" horiz-adv-x="1451" 
 />
    <glyph glyph-name="dkshade" unicode="&#x2593;" horiz-adv-x="1493" 
 />
    <glyph glyph-name="filledbox" unicode="&#x25a0;" horiz-adv-x="1237" 
 />
    <glyph glyph-name="H22073" unicode="&#x25a1;" horiz-adv-x="1237" 
 />
    <glyph glyph-name="H18543" unicode="&#x25aa;" horiz-adv-x="726" 
 />
    <glyph glyph-name="H18551" unicode="&#x25ab;" horiz-adv-x="726" 
 />
    <glyph glyph-name="filledrect" unicode="&#x25ac;" horiz-adv-x="2048" 
 />
    <glyph glyph-name="triagup" unicode="&#x25b2;" horiz-adv-x="2027" 
 />
    <glyph glyph-name="triagrt" unicode="&#x25ba;" horiz-adv-x="2027" 
 />
    <glyph glyph-name="triagdn" unicode="&#x25bc;" horiz-adv-x="2027" 
 />
    <glyph glyph-name="triaglf" unicode="&#x25c4;" horiz-adv-x="2027" 
 />
    <glyph glyph-name="circle" unicode="&#x25cb;" horiz-adv-x="1237" 
 />
    <glyph glyph-name="H18533" unicode="&#x25cf;" horiz-adv-x="1237" 
 />
    <glyph glyph-name="invbullet" unicode="&#x25d8;" horiz-adv-x="1237" 
 />
    <glyph glyph-name="invcircle" unicode="&#x25d9;" horiz-adv-x="1237" 
 />
    <glyph glyph-name="openbullet" unicode="&#x25e6;" horiz-adv-x="726" 
 />
    <glyph glyph-name="smileface" unicode="&#x263a;" horiz-adv-x="2091" 
 />
    <glyph glyph-name="invsmileface" unicode="&#x263b;" horiz-adv-x="2155" 
 />
    <glyph glyph-name="sun" unicode="&#x263c;" horiz-adv-x="1877" 
 />
    <glyph glyph-name="female" unicode="&#x2640;" horiz-adv-x="1536" 
 />
    <glyph glyph-name="male" unicode="&#x2642;" horiz-adv-x="1536" 
 />
    <glyph glyph-name="spade" unicode="&#x2660;" horiz-adv-x="1088" 
 />
    <glyph glyph-name="club" unicode="&#x2663;" horiz-adv-x="1344" 
 />
    <glyph glyph-name="heart" unicode="&#x2665;" horiz-adv-x="1216" 
 />
    <glyph glyph-name="diamond" unicode="&#x2666;" horiz-adv-x="1045" 
 />
    <glyph glyph-name="musicalnote" unicode="&#x266a;" horiz-adv-x="1024" 
 />
    <glyph glyph-name="musicalnotedbl" unicode="&#x266b;" horiz-adv-x="1536" 
 />
    <glyph glyph-name="uniF004" unicode="&#xf004;" horiz-adv-x="682" 
 />
    <glyph glyph-name="uniF005" unicode="&#xf005;" horiz-adv-x="682" 
 />
    </font>
</defs>
</svg>
